Ссылка на приватное зеркало всего за 1$. Внимание количество ограничено!!!

iTunes

iTunes

iTunes

1

iTunes

iTunes

iTunes

iTunes

iTunes

30
pack

$ от Little Big

ВАЖНО

!!Акция!!

Alien_RageХит недели

RePack

Resident Evil 21

ИГРА 18+

pack

RePack

jed

!!Акция!!

Alien_Rage

RePack

fifa19

RePack

Assassins Creed: Odyssey

RePack

NEED FOR SPEED™ PAYBACK

4 сезон

9 сезон

Бесстыжие 9 сезон

Все сериалы

все сериалы на PB.wtf

RePack

FAR CRY 5
  

Пёс / Сезон: 4 (НТВ) / Серии: 1-20 из 20 (Николай Каптан, Игорь Забара, Владимир Дощук) [2019, Детектив, WEBRip-AVC] pb.wtf

Пёс через торрент pb.wtf

Размер: 16.49 GB | Добавлен: 6 мес. назад | Торрент скачан:16 раз
Скачать  

03-12-2019 01:37 Пёс Скачать торрент  

Пёс Год выпуска: 2019
Страна: Украина
Жанр: Детектив
Продолжительность: ~ 00:50:00 серия
Перевод: Не требуется
Субтитры: отсутствуют
4-й сезон по версии канала НТВ

Режиссер: Николай Каптан, Игорь Забара, Владимир Дощук

В ролях: Андрей Саминин, Никита Панфилов, Михаил Жонин, Ольга Олексий, Денис Роднянский, Светлана Зельбет, Ольга Морозова, Тарас Мельничук, Автандил Бежиашвили, Илья Прокопив

Описание: В новом сезоне напарникам Максу Максимову и Псу в очередной раз представится возможность доказать и показать на что же способны напарники. Макс и Пес будут раскрывать самые запутанные преступления.Конечно, напарникам не обойтись без поддержки с тыла. Им всячески помогают бывшая супруга Максимова Лена и его (тоже бывший) лучший друг Леонидов, который стал новым мужем. Тут вырисовывается любовный треугольник! Лена очень трепетно относится к Максу и иногда проявляет к нему определенную заботу, а это выводит Леонидова.

Качество: WEBRip-AVC
Формат: MKV

Видео: MPEG-4 AVC, ~ 2000 Кбит/с, 1024x576, 25 кадр/с
Аудио: AC3, 2 ch, 192 Кбит/с
скриншот  скриншот  скриншот  скриншот  скриншот  

General
Unique ID : 182935749194953141283996267077459248527 (0x89A024CB50C060F58C3EDE3DF80C058F)
Complete name : F:\Пес (НТВ).S04.(2019).WEBRip.(AVC).Files-x\01.Pes.S04.(2019).WEBRip.(AVC).by.Серый1779.Files-x.mkv
Format : Matroska
Format version : Version 2
File size : 816 MiB
Duration : 52 min 3 s
Overall bit rate : 2 191 kb/s
Encoded date : UTC 2019-12-09 23:30:17
Writing application : mkvmerge v7.8.0 ('River Man') 32bit built on Apr 3 2015 12:11:22
Writing library : libebml v1.3.1 + libmatroska v1.4.2

Video
ID : 1
Format : AVC
Format/Info : Advanced Video Codec
Format profile : High@L4.1
Format settings : CABAC / 9 Ref Frames
Format settings, CABAC : Yes
Format settings, RefFrames : 9 frames
Codec ID : V_MPEG4/ISO/AVC
Duration : 52 min 3 s
Bit rate : 2 000 kb/s
Width : 1 024 pixels
Height : 576 pixels
Display aspect ratio : 16:9
Frame rate mode : Constant
Frame rate : 25.000 FPS
Color space : YUV
Chroma subsampling : 4:2:0
Bit depth : 8 bits
Scan type : Progressive
Bits/(Pixel*Frame) : 0.136
Stream size : 728 MiB (89%)
Writing library : x264 core 146 r2538 121396c
Encoding settings : cabac=1 / ref=9 / deblock=1:-2:-1 / analyse=0x3:0x133 / me=umh / subme=9 / psy=1 / psy_rd=1.00:0.15 / mixed_ref=1 / me_range=32 / chroma_me=1 / trellis=2 / 8x8dct=1 / cqm=0 / deadzone=21,11 / fast_pskip=0 / chroma_qp_offset=-3 / threads=18 / lookahead_threads=3 / sliced_threads=0 / nr=0 / decimate=1 / interlaced=0 / bluray_compat=0 / constrained_intra=0 / bframes=9 / b_pyramid=2 / b_adapt=2 / b_bias=0 / direct=1 / weightb=1 / open_gop=0 / weightp=2 / keyint=250 / keyint_min=25 / scenecut=40 / intra_refresh=0 / rc=2pass / mbtree=0 / bitrate=2000 / ratetol=1.0 / qcomp=0.60 / qpmin=0 / qpmax=69 / qpstep=4 / cplxblur=20.0 / qblur=0.5 / ip_ratio=1.40 / pb_ratio=1.30 / aq=2:1.00
Default : Yes
Forced : No
Color range : Limited
Color primaries : BT.709
Transfer characteristics : BT.709
Matrix coefficients : BT.709

Audio
ID : 2
Format : AC-3
Format/Info : Audio Coding 3
Format settings, Endianness : Big
Codec ID : A_AC3
Duration : 52 min 3 s
Bit rate mode : Constant
Bit rate : 192 kb/s
Channel(s) : 2 channels
Channel positions : Front: L R
Sampling rate : 48.0 kHz
Frame rate : 31.250 FPS (1536 SPF)
Bit depth : 16 bits
Compression mode : Lossy
Stream size : 71.5 MiB (9%)
Service kind : Complete Main
Default : Yes
Forced : No

Внимание! Раздача ведётся путём добавления новых серий; при каждом добавлении создаётся новый торрент.
Чтобы начать докачку новой серии, пользователям необходимо сделать следующее:
1. Остановить скачивание.
2. Удалить старый торрент у себя из клиента (старые серии удалять не надо).
3. Скачать новый торрент и запустить его у себя в клиенте вместо старого, при этом указать клиенту путь в старую папку куда и должно происходить скачивание новых серий.
Ваш клиент при этом должен произвести хеширование (проверку) старой папки (если не производит сам - помогите ему сделать это), и будет докачивать только те серии которых у вас ещё нет. Старые серии при этом не удаляются, а продолжают раздаваться!
Eсли вы уже удалили старые серии, то предотвратить повторную закачку старых серий можно, отжав галочку в соответствующих местах при запуске нового торрента.
pb.wtf



Скачать Пёс через торрент https://i111.fastpic.ru/big/2019/1203/e8/d49afa032a46e276bba53e45ccdb4de8.jpg Скачать фильм Пёс через торрент бесплантно в хорошем качестве Описание: В новом сезоне напарникам Максу Максимову и Псу в очередной раз представится возможность доказать и показать на что же способны ... 10 10 7
Торрент: Зарегистрирован [2020-01-01 05:30] · скачан: 16 раз
Статус: √ проверено
Размер: 16.49 GB
Как cкачать? Как скачать Пёс через торрент | qTorrent

% Раздел Тема Автор DL S | L
Наши сериалы [ 27.77 GB ] Пёс / Сезон: 4 / Серии: 1-20 из 20 [2019 WEBRip 720p] bober100 Скачать
1 | 0
Наши сериалы [ 46.42 GB ] Пёс / Сезон: 4 / Серии: 1-20 из 20 [2019 WEBRip 1080p] bober100 Скачать
1 | 0
Наши сериалы [ 13.56 GB ] Пёс / Сезон: 4 / Серии: 1-20 из 20 [2019 WEBRip] bober100 Скачать
1 | 0
Зарубежные сериалы [ 8.36 GB ] Багровый лепесток и белый / The Crimson Petal and the White / Сезон: 1 / Серии: 1-4 из 4 [2011 WEB-DL 1080p] MVO [TVShows] bober100 Скачать
1 | 0
Зарубежные сериалы [ 4.52 GB ] Багровый лепесток и белый / The Crimson Petal and the White / Сезон: 1 / Серии: 1-4 из 4 [2011 WEB-DL 720p] MVO [TVShows] bober100 Скачать
1 | 0
Мультсериалы [ 9.02 GB ] Кураж - трусливый пёс / Courage the Cowardly Dog /Сезоны с 1по 4/Серии: 91 из 91 [1999-2002 мультфильм .SATRip] MrМартовский Кот Скачать
1 | 0
Наши сериалы [ 14.04 GB ] Пёс / Сезон: 4 / Серии: 1-22 из 22 [2018 WEB-DLRip-AVC] Sanekzade1989 Скачать
1 | 0


Последний раз редактировалось: bober100 (2020-01-01 05:30), всего редактировалось 7 раз(а)

28-11-2019 20:33  

Отключить всю рекламу на сайте

    Дорогой пользователь! Огромная просьба, поблагодарите релизера, оцените раздачу и оставьте свои комментарий, если Вы скачали Пёс через торрент бесплатно! Внесите свою лепту в развитие PiratBit!
    Комментировать посты могут только пользователи прошедшие не сложную регистрацию
    Показать сообщения:    

    Пёс через торрент
    Скачать бесплатно Пёс
    Пёс скачать торрент
    Пёс смотреть онлайн
    Cкачать фильм Пёс бесплатно
    Пёс скачать торрент в хорошем качестве
    Пёс смотреть онлайн бесплатно в хорошем качестве


    Вы не можете начинать темы
    Вы не можете отвечать на сообщения
    Вы не можете редактировать свои сообщения
    Вы не можете удалять свои сообщения
    Вы не можете голосовать в опросах
    Вы не можете прикреплять файлы к сообщениям
    Вы можете скачивать файлы