Ссылка на приватное зеркало нашего сайта всего за 1$. Внимание количество ограничено!!!

2 сезон

iTunes

1 сезон

1

iTunes

iTunes

iTunes

1 сезон

RePack

30

ИГРА 18+

pack

ВАЖНО

!!Акция!!

Alien_RageХит недели

RePack

MK11
pack

Забери бонус

RePack

jed

!!Акция!!

Alien_Rage

RePack

fifa19

RePack

Assassins Creed: Odyssey

RePack

NEED FOR SPEED™ PAYBACK

4 сезон

9 сезон

Бесстыжие 9 сезон

Все сериалы

все сериалы на PB.wtf

RePack

FAR CRY 5
  

Папик / Сезон: 1 / Серии: 1-16 из 16 + Взгляд изнутри (Андрей Яковлев) [2019, Комедия, WEB-DLRip] pb.wtf

Папик через торрент pb.wtf

Раздают: 1 [ 0 KB/s ]
Размер: 6.48 GB | Добавлен: 10 мес. назад | Торрент скачан:109 раз
Скачать  

03-12-2019 12:12 Папик Скачать торрент  

Папик Год выпуска: 2019
Страна: Украина
Студия: Студия Квартал 95
Жанр: Комедия
Продолжительность: ~ 00:33:00 серия
Перевод: Не требуется
Субтитры: отсутствуют

Режиссер: Андрей Яковлев

В ролях: Станислав Боклан, Дарья Петрожицкая, Сергей Сипливый, Олеся Жураковская, Екатерина Кистень, Вера Кобзарь, Вячеслав Гиндин, Михаил Кукуюк

Описание: По сюжету, пенсионер, некогда популярный актер кино, доведенный до отчаяния, решает свести счеты с жизнью. Но напоследок хочет привести себя в порядок и идет в модный барбершоп. Там ему, конечно же, наливают, после чего его тянет на последние в своей жизни приключения. Но неожиданно в одном из клубов главный герой знакомится с девушкой, охотницей на "папиков", которая принимает его за успешного миллионера...

Качество: WEB-DLRip
Формат: AVI

Видео: XviD, ~ 1600 Кбит/с, 720x400, 25 кадр/с
Аудио: AC3, 2 ch, 192 Кбит/с
скриншот  скриншот  скриншот  скриншот  

General
Complete name: C:01.Папик.s01.E01.(2019).WEB-DLRip.by.Nicodem.Files-x.avi
Format: AVI
Format/Info: Audio Video Interleave
File size: 420 MiB
Duration: 32mn 36s
Overall bit rate: 1 802 Kbps
Writing application: VirtualDubMod 1.5.10.3 | www.virtualdub-fr.org || (build 2550/release)
Writing library: VirtualDubMod build 2550/release

Video
ID: 0
Format: MPEG-4 Visual
Format profile: Advanced Simple@L5
Format settings, BVOP: 1
Format settings, QPel: No
Format settings, GMC: No warppoints
Format settings, Matrix: Custom
Codec ID: XVID
Codec ID/Hint: XviD
Duration: 32mn 36s
Bit rate: 1 600 Kbps
Width: 720 pixels
Height: 400 pixels
Display aspect ratio: 16:9
Frame rate: 25.000 fps
Color space: YUV
Chroma subsampling: 4:2:0
Bit depth: 8 bits
Scan type: Progressive
Compression mode: Lossy
Bits/(Pixel*Frame): 0.222
Stream size: 373 MiB (89%)
Writing library: XviD 73

Audio
ID: 1
Format: AC-3
Format/Info: Audio Coding 3
Mode extension: CM (complete main)
Codec ID: 2000
Duration: 32mn 36s
Bit rate mode: Constant
Bit rate: 192 Kbps
Channel(s): 2 channels
Channel positions: Front: L R
Sampling rate: 48.0 KHz
Bit depth: 16 bits
Compression mode: Lossy
Stream size: 44.8 MiB (11%)
Alignment: Split accross interleaves
Interleave, duration: 40 ms (1.00 video frame)
Interleave, preload duration: 500 ms

Внимание! Раздача ведётся путём добавления новых серий; при каждом добавлении создаётся новый торрент.
Чтобы начать докачку новой серии, пользователям необходимо сделать следующее:
1. Остановить скачивание.
2. Удалить старый торрент у себя из клиента (старые серии удалять не надо).
3. Скачать новый торрент и запустить его у себя в клиенте вместо старого, при этом указать клиенту путь в старую папку куда и должно происходить скачивание новых серий.
Ваш клиент при этом должен произвести хеширование (проверку) старой папки (если не производит сам - помогите ему сделать это), и будет докачивать только те серии которых у вас ещё нет. Старые серии при этом не удаляются, а продолжают раздаваться!
Eсли вы уже удалили старые серии, то предотвратить повторную закачку старых серий можно, отжав галочку в соответствующих местах при запуске нового торрента.
pb.wtf



Скачать Папик через торрент https://i111.fastpic.ru/big/2019/1203/af/290e4e8029d9f85b6f5cf1821c20e7af.jpg Скачать фильм Папик через торрент бесплантно в хорошем качестве Описание: По сюжету, пенсионер, некогда популярный актер кино, доведенный до отчаяния, решает свести счеты с жизнью. Но напоследок хочет ... 8.3 10 12
Торрент: Зарегистрирован [2019-12-14 17:01] · скачан: 109 раз
Статус: √ проверено
Размер: 6.48 GB
Как cкачать? Как скачать Папик через торрент | qTorrent

% Раздел Тема Автор DL S | L
Наши сериалы [ 7.28 GB ] Папик / Сезон: 1 / Серии: 1-16 из 16 + Взгляд изнутри [2019 WEB-DL 720p] bober100 Скачать
2 | 0
Наши сериалы [ 6.44 GB ] Папик / Сезон: 1 / Серии: 1-16 из 16 + Взгляд изнутри [2019 WEB-DLRip-AVC] bober100 Скачать
2 | 0

28-11-2019 20:33  

Отключить всю рекламу на сайте

    Дорогой пользователь! Огромная просьба, поблагодарите релизера, оцените раздачу и оставьте свои комментарий, если Вы скачали Папик через торрент бесплатно! Внесите свою лепту в развитие PiratBit!
    Комментировать посты могут только пользователи прошедшие не сложную регистрацию
    Показать сообщения:    

    Папик через торрент
    Скачать бесплатно Папик
    Папик скачать торрент
    Папик смотреть онлайн
    Cкачать фильм Папик бесплатно
    Папик скачать торрент в хорошем качестве
    Папик смотреть онлайн бесплатно в хорошем качестве


    Вы не можете начинать темы
    Вы не можете отвечать на сообщения
    Вы не можете редактировать свои сообщения
    Вы не можете удалять свои сообщения
    Вы не можете голосовать в опросах
    Вы не можете прикреплять файлы к сообщениям
    Вы можете скачивать файлы