Аватар: Путь воды

Лицензия

В те дни

1 сезон

скачать смотреть онлайн John Wick Chapter 4

MVO

Крик 6

Дубляж

13 клиническая

3 сезон

Восстание зловещих мертвецов

Дубляж

Одни из нас

Дубляж

Dead Island 2 Gold

Gold

Deluxe RUS

Deluxe RUS

pack

Рекомендуем

ВАЖНО

ВАЖНО

30

Repack

The Lord of the Rings: Gollum

Лицензия

jed

RePack

nioh2

RePack

RDR2

RePack

NEED FOR SPEED™ PAYBACK

RePack

скачать торрент

Кинопоиск HD

Острые козырьки 6 сезон

6 сезон

FAR CRY 6

RePack

скачать торрент

Лицензия

скачать торрент

MVO

1

1 сезон

скачать торрент

1 сезон

скачать торрент

Лицензия

  

Харли Квинн / Harley Quinn / Сезон: 1 / Серии: 1-13 из 13 (Сесилия Аранович, Мэтт Гарофало, Фрэнк Марино) [2019, Мультсериал, фантастика, фэнтези, боевик, комедия, криминал, детектив, UHD WEB-DL 2160p] MVO [TVShows]

Харли Квинн через торрент pb.wtf

Размер: 23.61 GB | Добавлен: 3 года 3 мес. назад | Торрент скачан:0 раз
Смотреть онлайн | Скачать | Поддержите нас   

03-12-2019 12:42 Харли Квинн Скачать торрент  

Харли Квинн | Harley Quinn
Год выпуска: 2019
Страна: США
Жанр: Мультсериал, фантастика, фэнтези, боевик, комедия, криминал, детектив
Продолжительность: ~ 00:22:00
Перевод: Профессиональный (многоголосый) | TVShows
Субтитры: Английские

Режиссер: Сесилия Аранович, Мэтт Гарофало, Фрэнк Марино

rating

В ролях: Кейли Куоко, Лэйк Белл, Алан Тьюдик, Дидрих Бадер, Джим Рэш, Рон Фанчес, Кристофер Мелони, Тони Хейл, Дж.Б. Смув, Джейсон Александер

Описание: Харли Квинн разорвала отношения с Джокером и теперь пытается самостоятельно стать королевой преступного мира Готэма.

Качество: UHD WEB-DL 2160p
Формат: MKV

Видео: X265, HEVC, ~ 10,3 Мбит/с, 1920x1080
Аудио#1: AC3, 48,0 КГц, 6 ch, 384 kbps - RUS
Аудио#2: AC3, 48,0 КГц, 6 ch, 640 kbps - ENG
скриншот  скриншот  скриншот  скриншот  скриншот  

Общее
Уникальный идентификатор : 314564714906401937328928217277095411018 (0xECA6F5DC06C611F351AAE2E12466FD4A)
Полное имя : D:\Harley.Quinn.S01.2160p.TVShows\Harley.Quinn.S01E01.2160p.TVShows.mkv
Формат : Matroska
Версия формата : Version 4 / Version 2
Размер файла : 1,82 Гбайт
Продолжительность : 22 м. 55 с.
Общий поток : 11,4 Мбит/сек
Дата кодирования : UTC 2019-12-03 06:44:49
Программа кодирования : mkvmerge v33.1.0 ('Primrose') 64-bit
Библиотека кодирования : libebml v1.3.7 + libmatroska v1.5.0

Видео
Идентификатор : 1
Формат : HEVC
Формат/Информация : High Efficiency Video Coding
Профиль формата : [email protected]@Main
Идентификатор кодека : V_MPEGH/ISO/HEVC
Продолжительность : 22 м. 55 с.
Битрейт : 10,3 Мбит/сек
Ширина : 3840 пикселей
Высота : 2160 пикселей
Соотношение сторон : 16:9
Режим частоты кадров : Постоянный
Частота кадров : 23,976 (24000/1001) кадра/сек
Цветовое пространство : YUV
Субдискретизация насыщенности : 4:2:0
Битовая глубина : 8 бит
Бит/(Пиксели*Кадры) : 0.052
Размер потока : 1,66 Гбайт (91%)
Default : Да
Forced : Нет
Цветовой диапазон : Limited
Основные цвета : BT.709
Характеристики трансфера : BT.709
Коэффициенты матрицы : BT.709

Аудио #1
Идентификатор : 2
Формат : AC-3
Формат/Информация : Audio Coding 3
Расширение режима : CM (complete main)
Параметр Endianness формата : Big
Идентификатор кодека : A_AC3
Продолжительность : 22 м. 55 с.
Вид битрейта : Постоянный
Битрейт : 384 Кбит/сек
Каналы : 6 каналов
Расположение каналов : Front: L C R, Side: L R, LFE
Частота : 48,0 КГц
Частота кадров : 31,250 кадров/сек (1536 spf)
Метод сжатия : С потерями
Размер потока : 63,0 Мбайт (3%)
Заголовок : TVShows
Язык : Russian
Default : Да
Forced : Да

Аудио #2
Идентификатор : 3
Формат : AC-3
Формат/Информация : Audio Coding 3
Расширение режима : CM (complete main)
Параметр Endianness формата : Big
Идентификатор кодека : A_AC3
Продолжительность : 22 м. 55 с.
Вид битрейта : Постоянный
Битрейт : 640 Кбит/сек
Каналы : 6 каналов
Расположение каналов : Front: L C R, Side: L R, LFE
Частота : 48,0 КГц
Частота кадров : 31,250 кадров/сек (1536 spf)
Метод сжатия : С потерями
Размер потока : 105 Мбайт (6%)
Заголовок : Original
Язык : English
Default : Нет
Forced : Нет

Текст
Идентификатор : 4
Формат : UTF-8
Идентификатор кодека : S_TEXT/UTF8
Идентификатор кодека/Информация : UTF-8 Plain Text
Продолжительность : 22 м. 1 с.
Битрейт : 113 бит/сек
ElementCount : 535
Размер потока : 18,2 Кбайт (0%)
Заголовок : English
Язык : English
Default : Нет
Forced : Нет

Внимание! Раздача ведётся путём добавления новых серий; при каждом добавлении создаётся новый торрент. Чтобы начать докачку новой серии, пользователям необходимо сделать следующее:
(1) остановить скачивание,
(2) удалить старый торрент у себя из клиента (старые серии удалять не надо),
(3) скачать новый торрент и запустить его у себя в клиенте вместо старого, при этом указать клиенту путь в старую папку куда и должно происходить скачивание новых серий.

Ваш клиент при этом должен произвести хеширование (проверку) старой папки (если не производит сам - помогите ему сделать это), и будет докачивать только те серии которых у вас ещё нет. Старые серии при этом не удаляются, а продолжают раздаваться!

Eсли вы уже удалили старые серии, то предотвратить повторную закачку старых серий можно, отжав галочку в соответствующих местах при запуске нового торрента. По возможности, желательно не удалять старые серии как можно дольше чтобы релизёр не столько продолжал раздавать старые серии, а смог сконцентрироваться на новых.




Скачать Харли Квинн через торрент https://i111.fastpic.ru/big/2019/1201/31/8127f4c0e2e003070d1c603e9cfe7331.jpg Скачать, смотреть онлайн Харли Квинн бесплатно в хорошем качестве Описание: Харли Квинн разорвала отношения с Джокером и теперь пытается самостоятельно стать королевой преступного мира ... 10 10 4
Торрент: Зарегистрирован [2020-02-25 17:25] · скачан: 0 раз
Статус: √ проверено
Размер: 23.61 GB
Как cкачать? Как скачать Харли Квинн через торрент | UTorrent

% Раздел Тема Автор DL S | L
Мультсериалы [ 13.6 GB ] Харли Квинн / Harley Quinn / Сезон: 3 / Серии: 1-10 из 10 | DUB | 1080p bober100 Скачать
3 | 1
Мультсериалы [ 4.99 GB ] Харли Квинн / Harley Quinn / Сезон: 2 / Серии: 1-13 из 13 | DUB | DLRip bober100 Скачать
1 | 0
Мультсериалы [ 23.65 GB ] Харли Квинн / Harley Quinn / Сезон: 2 / Серии: 1-13 из 13 | DUB | 2160p, (SDR bober100 Скачать
1 | 0
Мультсериалы [ 12.5 GB ] Харли Квинн / Harley Quinn / Сезон: 2 / Серии: 1-13 из 13 | DUB | 1080p bober100 Скачать
1 | 0
Мультсериалы [ 3.95 GB ] Харли Квинн / Harley Quinn / Сезон: 1 / Серии: 1-13 из 13 | DUB | DLRip killermax2013 Скачать
1 | 0
Мультсериалы [ 23.67 GB ] Харли Квинн / Harley Quinn / Сезон: 1 / Серии: 1-13 из 13 | DUB | 2160p killermax2013 Скачать
1 | 0
Мультсериалы [ 5.38 GB ] Харли Квинн / Harley Quinn / Сезон: 1 / Серии: 1-13 из 13 | DUB | DLRip bober100 Скачать
2 | 0

28-11-2019 20:33  


Отключить вcю реклaмy на сайте, в т.ч. и в плеере онлайн просмотра!

    Дорогой пользователь! Огромная просьба, поблагодарите релизера, оцените раздачу и оставьте свои комментарий, если Вы скачали Харли Квинн через торрент бесплатно!!
    Комментировать посты могут только пользователи прошедшие не сложную регистрацию
    Показать сообщения:    


    Харли Квинн через торрент
    Скачать бесплатно Харли Квинн
    Харли Квинн скачать торрент
    Харли Квинн смотреть онлайн
    Cкачать фильм Харли Квинн бесплатно
    Харли Квинн скачать торрент в хорошем качестве
    Харли Квинн смотреть онлайн бесплатно в хорошем качестве
    Вы не можете начинать темы
    Вы не можете отвечать на сообщения
    Вы не можете редактировать свои сообщения
    Вы не можете удалять свои сообщения
    Вы не можете голосовать в опросах
    Вы не можете прикреплять файлы к сообщениям
    Вы можете скачивать файлы