Ссылка на приватное зеркало нашего сайта всего за 1$. Внимание количество ограничено!!!

2 сезон

iTunes

1 сезон

1

iTunes

iTunes

iTunes

1 сезон

RePack

30

ИГРА 18+

pack

ВАЖНО

!!Акция!!

Alien_RageХит недели

RePack

MK11
pack

Забери бонус

RePack

jed

!!Акция!!

Alien_Rage

RePack

fifa19

RePack

Assassins Creed: Odyssey

RePack

NEED FOR SPEED™ PAYBACK

4 сезон

9 сезон

Бесстыжие 9 сезон

Все сериалы

все сериалы на PB.wtf

RePack

FAR CRY 5
  

Государственный преступник (Николай Розанцев) [1964, СССР, драма, детектив, HDTVRip от AVP Studio] pb.wtf

Государственный преступник через торрент pb.wtf

Раздают: 1 [ 0 KB/s ]
Размер: 745 MB | Добавлен: 10 мес. назад | Торрент скачан:12 раз
Скачать  

03-12-2019 13:00 Государственный преступник Скачать торрент  

Государственный преступник
Страна: СССР
Производство: Ленфильм (Первое творческое объединение)

Жанр: драма, детектив
Год выпуска: 1961
Продолжительность: 01:30:15

Перевод: Не требуется
Cубтитры: нет
Оригинальная аудиодорожка: русский

Режиссер: Николай Розанцев

В ролях:
Александр Демьяненко, Алина Покровская, Сергей Лукьянов, Павел Кадочников, Клара Лучко, Олег Жаков, Валерий Никитенко, Бруно Фрейндлих, Александр Момбели, Нелли Корнева, Оксана Лукьянова, Степан Крылов...
Об актёрах подробней

Описание:
После упорных поисков работникам органов безопасности удается найти и обезвредить опасного государственного преступника, повинного в гибели сотен людей в годы Великой Отечественной войны.


Источник: HDTV 1080i
Качество видео: HDTVRip
Формат видео: AVI

Видео: 720x304 (2,35:1), 25,000 кадров/сек, XviD ~ 953 kbps avg, 0.174 bit/pixel
Аудио: 48 kHz, Dolby Digital AC3 2.0, 192 kbps

Раздача от:
Общее
Полное имя : Gosudarstvennyy.prestupnik.1964.HDTVRip_[New-team]_by_AVP_Studio.avi
Формат : AVI
Формат/Информация : Audio Video Interleave
Размер файла : 745 Мбайт
Продолжительность : 1 ч. 30 м.
Общий поток : 1155 Кбит/сек
Программа кодирования : VirtualDubMod 1.5.10.3 | www.virtualdub-fr.org || (build 2550/release)
Библиотека кодирования : VirtualDubMod build 2550/release

Видео
Идентификатор : 0
Формат : MPEG-4 Visual
Профиль формата : Advanced Simple@L5
Настройки формата : BVOP1 / Custom Matrix
Параметр BVOP формата : 1
Параметр QPel формата : Нет
Параметр GMC формата : Без точки перехода
Параметр матрицы формата : Выборочная
Идентификатор кодека : XVID
Идентификатор кодека/Подсказка : XviD
Продолжительность : 1 ч. 30 м.
Битрейт : 953 Кбит/сек
Ширина : 720 пикселей
Высота : 304 пикселя
Соотношение сторон : 2,35:1
Частота кадров : 25,000 кадров/сек
Цветовое пространство : YUV
Субдискретизация насыщенности : 4:2:0
Битовая глубина : 8 бит
Тип развёртки : Прогрессивная
Метод сжатия : С потерями
Бит/(Пиксели*Кадры) : 0.174
Размер потока : 615 Мбайт (83%)
Библиотека кодирования : XviD 73

Аудио
Идентификатор : 1
Формат : AC-3
Формат/Информация : Audio Coding 3
Коммерческое название : Dolby Digital
Идентификатор кодека : 2000
Продолжительность : 1 ч. 30 м.
Вид битрейта : Постоянный
Битрейт : 192 Кбит/сек
Каналы : 2 канала
ChannelLayout : L R
Частота : 48,0 КГц
Частота кадров : 31,250 кадров/сек (1536 SPF)
Битовая глубина : 16 бит
Метод сжатия : С потерями
Размер потока : 124 Мбайт (17%)
Выравнивание : Разделение по промежуткам
Продолжительность промежутка : 40 мс. (1,00 видеокадр)
Время предзагрузки промежутка : 500 мс
pb.wtf



Скачать Государственный преступник через торрент http://d.radikal.ru/d11/1912/e6/58ed9fec0417.png Скачать фильм Государственный преступник через торрент бесплантно в хорошем качестве Описание:После упорных поисков работникам органов безопасности удается найти и обезвредить опасного государственного преступника, повинного ... 5 10 1
Торрент: Зарегистрирован [2019-12-03 13:00] · скачан: 12 раз
Статус: √ проверено
Размер: 745 MB
Как cкачать? Как скачать Государственный преступник через торрент | qTorrent

% Раздел Тема Автор DL S | L
Кино СССР [ 1.46 GB ] Государственный преступник [1964 СССР HDTVRip-AVC от AVP Studio] AVP Studio Скачать
4 | 0

28-11-2019 20:33  

Отключить всю рекламу на сайте

    Дорогой пользователь! Огромная просьба, поблагодарите релизера, оцените раздачу и оставьте свои комментарий, если Вы скачали Государственный преступник через торрент бесплатно! Внесите свою лепту в развитие PiratBit!
    Комментировать посты могут только пользователи прошедшие не сложную регистрацию
    Показать сообщения:    

    Государственный преступник через торрент
    Скачать бесплатно Государственный преступник
    Государственный преступник скачать торрент
    Государственный преступник смотреть онлайн
    Cкачать фильм Государственный преступник бесплатно
    Государственный преступник скачать торрент в хорошем качестве
    Государственный преступник смотреть онлайн бесплатно в хорошем качестве


    Вы не можете начинать темы
    Вы не можете отвечать на сообщения
    Вы не можете редактировать свои сообщения
    Вы не можете удалять свои сообщения
    Вы не можете голосовать в опросах
    Вы не можете прикреплять файлы к сообщениям
    Вы можете скачивать файлы