Ссылка на приватное зеркало нашего сайта всего за 1$. Внимание количество ограничено!!!

2 сезон

iTunes

1 сезон

1

iTunes

iTunes

iTunes

1 сезон

RePack

30

ИГРА 18+

pack

ВАЖНО

!!Акция!!

Alien_RageХит недели

RePack

MK11
pack

Забери бонус

RePack

jed

!!Акция!!

Alien_Rage

RePack

fifa19

RePack

Assassins Creed: Odyssey

RePack

NEED FOR SPEED™ PAYBACK

4 сезон

9 сезон

Бесстыжие 9 сезон

Все сериалы

все сериалы на PB.wtf

RePack

FAR CRY 5
  

Государственный преступник (Николай Розанцев) [1964, СССР, драма, детектив, HDTVRip-AVC от AVP Studio] pb.wtf

Государственный преступник через торрент pb.wtf

Раздают: 4 [ 0 KB/s ]
Размер: 1.46 GB | Добавлен: 10 мес. назад | Торрент скачан:30 раз
Скачать  

03-12-2019 13:01 Государственный преступник Скачать торрент  

Государственный преступник
Страна: СССР
Производство: Ленфильм (Первое творческое объединение)

Жанр: драма, детектив
Год выпуска: 1961
Продолжительность: 01:30:15

Перевод: Не требуется
Cубтитры: нет
Оригинальная аудиодорожка: русский

Режиссер: Николай Розанцев

В ролях:
Александр Демьяненко, Алина Покровская, Сергей Лукьянов, Павел Кадочников, Клара Лучко, Олег Жаков, Валерий Никитенко, Бруно Фрейндлих, Александр Момбели, Нелли Корнева, Оксана Лукьянова, Степан Крылов...
Об актёрах подробней

Описание:
После упорных поисков работникам органов безопасности удается найти и обезвредить опасного государственного преступника, повинного в гибели сотен людей в годы Великой Отечественной войны.


Источник: HDTV 1080i
Качество видео: HDTVRip-AVC
Формат видео: MKV

Видео: 1024x432 (2,40:1), 25,000 кадров/сек, H264 ~ 1928 kbps avg, 0.174 bit/pixel
Аудио: 48 kHz, Dolby Digital AC3 2.0, 192 kbps

Раздача от:
Общее
Полное имя : Gosudarstvennyy.prestupnik.1964.HDTVRip-AVC_[New-team]_by_AVP_Studio.mkv
Формат : Matroska
Версия формата : Version 2
Размер файла : 1,46 Гбайт
Продолжительность : 1 ч. 30 м.
Общий поток : 2314 Кбит/сек
Дата кодирования : UTC 2019-11-26 08:51:01
Программа кодирования : mkvmerge v6.1.0 ('Old Devil') built on Mar 4 2013 09:10:42
Библиотека кодирования : libebml v1.3.0 + libmatroska v1.4.0

Видео
Идентификатор : 1
Формат : AVC
Формат/Информация : Advanced Video Codec
Профиль формата : High@L4.1
Настройки формата : CABAC / 10 Ref Frames
Параметр CABAC формата : Да
Параметр RefFrames формата : 10 кадров
Идентификатор кодека : V_MPEG4/ISO/AVC
Продолжительность : 1 ч. 30 м.
Битрейт : 1928 Кбит/сек
Ширина : 1024 пикселя
Высота : 432 пикселя
Соотношение сторон : 2,40:1
Режим частоты кадров : Постоянный
Частота кадров : 25,000 кадров/сек
Цветовое пространство : YUV
Субдискретизация насыщенности : 4:2:0
Битовая глубина : 8 бит
Тип развёртки : Прогрессивная
Бит/(Пиксели*Кадры) : 0.174
Размер потока : 1,19 Гбайт (81%)
Библиотека кодирования : x264 core 157 r2932 303c484
Настройки программы : cabac=1 / ref=10 / deblock=1:-3:-2 / analyse=0x3:0x113 / me=umh / subme=10 / psy=1 / psy_rd=1.00:0.00 / mixed_ref=1 / me_range=32 / chroma_me=1 / trellis=2 / 8x8dct=1 / cqm=0 / deadzone=21,11 / fast_pskip=1 / chroma_qp_offset=-2 / threads=6 / lookahead_threads=1 / sliced_threads=0 / nr=0 / decimate=0 / interlaced=0 / bluray_compat=0 / constrained_intra=0 / bframes=8 / b_pyramid=2 / b_adapt=2 / b_bias=0 / direct=3 / weightb=1 / open_gop=0 / weightp=2 / keyint=250 / keyint_min=25 / scenecut=40 / intra_refresh=0 / rc_lookahead=40 / rc=2pass / mbtree=1 / bitrate=1928 / ratetol=1.0 / qcomp=0.60 / qpmin=0 / qpmax=69 / qpstep=4 / cplxblur=20.0 / qblur=0.5 / ip_ratio=1.40 / aq=1:1.00
Default : Да
Forced : Нет

Аудио
Идентификатор : 2
Формат : AC-3
Формат/Информация : Audio Coding 3
Коммерческое название : Dolby Digital
Идентификатор кодека : A_AC3
Продолжительность : 1 ч. 30 м.
Вид битрейта : Постоянный
Битрейт : 384 Кбит/сек
Каналы : 6 каналов
ChannelLayout : L R C LFE Ls Rs
Частота : 48,0 КГц
Частота кадров : 31,250 кадров/сек (1536 SPF)
Битовая глубина : 16 бит
Метод сжатия : С потерями
Размер потока : 248 Мбайт (17%)
Default : Да
Forced : Нет
pb.wtf



Скачать Государственный преступник через торрент http://d.radikal.ru/d11/1912/e6/58ed9fec0417.png Скачать фильм Государственный преступник через торрент бесплантно в хорошем качестве Описание:После упорных поисков работникам органов безопасности удается найти и обезвредить опасного государственного преступника, повинного ... 10 10 2
Торрент: Зарегистрирован [2019-12-03 13:01] · скачан: 30 раз
Статус: √ проверено
Размер: 1.46 GB
Как cкачать? Как скачать Государственный преступник через торрент | qTorrent

% Раздел Тема Автор DL S | L
Кино СССР [ 745 MB ] Государственный преступник [1964 СССР HDTVRip от AVP Studio] AVP Studio Скачать
1 | 2

28-11-2019 20:33  

Отключить всю рекламу на сайте

10-12-2019 08:24 Государственный преступник Скачать торрент  

Посмотрел недавно. Довольно не плохо. Демьяненко раньше воспринимал как комедийного актера, а тут.. ю Спасибо за раздачу.pb.wtf



    Дорогой пользователь! Огромная просьба, поблагодарите релизера, оцените раздачу и оставьте свои комментарий, если Вы скачали Государственный преступник через торрент бесплатно! Внесите свою лепту в развитие PiratBit!
    Комментировать посты могут только пользователи прошедшие не сложную регистрацию
    Показать сообщения:    

    Государственный преступник через торрент
    Скачать бесплатно Государственный преступник
    Государственный преступник скачать торрент
    Государственный преступник смотреть онлайн
    Cкачать фильм Государственный преступник бесплатно
    Государственный преступник скачать торрент в хорошем качестве
    Государственный преступник смотреть онлайн бесплатно в хорошем качестве


    Вы не можете начинать темы
    Вы не можете отвечать на сообщения
    Вы не можете редактировать свои сообщения
    Вы не можете удалять свои сообщения
    Вы не можете голосовать в опросах
    Вы не можете прикреплять файлы к сообщениям
    Вы можете скачивать файлы