Ссылка на приватное зеркало нашего сайта всего за 1$. Внимание количество ограничено!!!

2 сезон

iTunes

1 сезон

1

2 сезон

2 сезон

iTunes

1 сезон

RePack

30

Новинка

ВАЖНО

ИГРА 18+

pack

RePack

MK11
pack

Забери бонус

RePack

jed

!!Акция!!

Alien_Rage

RePack

fifa19

RePack

Assassins Creed: Odyssey

RePack

NEED FOR SPEED™ PAYBACK

4 сезон

9 сезон

Бесстыжие 9 сезон

Все сериалы

все сериалы на PB.wtf

RePack

FAR CRY 5
  

Свадебный угар / Mike and Dave Need Wedding Dates (Джейк Зиманский) [2016, мелодрама, комедия, приключения, BD Remux 1080p] DUB [Лицензия] pb.wtf

Свадебный угар через торрент pb.wtf

Размер: 22.42 GB | Добавлен: 1 год назад | Торрент скачан:10 раз
Скачать  

03-12-2019 19:44 Свадебный угар Скачать торрент  

Свадебный угар / Mike and Dave Need Wedding Dates
Год выпуска: 2016
Страна: США
Студия: 20th Century Fox Film Corporation
Жанр: мелодрама, комедия, приключения
Продолжительность: 01:38:32
Перевод: Дублированный | Лицензия Blu-Ray EUR
Субтитры: Русские, английские

Режиссер: Джейк Зиманский

rating

В ролях: Зак Эфрон, Адам Дивайн, Анна Кендрик, Обри Плаза, Хлоя Бриджес, Кумаил Наджиани, Стивен Рут, Элис Веттерланд, Стефани Фэрэси, Венди Уильямс (V), Бранскомб Ричмонд

Описание:Братья-тусовщики Майк и Дэйв дают в интернете объявление о поиске пар, чтобы отправиться на свадьбу сестры на Гавайях. Они надеются на дикий отрыв, но выбранный ими дуэт девушек оказывается совершенно неконтролируемым, готовым превратить праздник в настоящий ад.

Качество: BD Remux 1080p
Формат: MKV

Видео: MPEG-4 AVC, 1920x1080, 26.8 Mbit/s, 23.976 fps
Аудио #01: 48 kHz, DTS, 5.1, 768 Kbps | Дублированный | Лицензия |
Аудио #02: 48 kHz, AC3, 5.1, 448 Kbps | Дублированный | Лицензия |
Аудио #03: 48 kHz, DTS-HD MA, 7.1, 4570 kbps | Оригинал |
скриншот   скриншот   скриншот   скриншот   скриншот  

General
Unique ID : 249516732482519107600976298193041237942 (0xBBB72CB7436017D796F8C1C2455427B6)
Complete name : H:VideoMike.and.Dave.Need.Wedding.Dates.2016.D.BDREMUX.1080p.ExKinoRay.mkv
Format : Matroska
Format version : Version 4 / Version 2
File size : 22.4 GiB
Duration : 1 h 38 min
Overall bit rate mode : Variable
Overall bit rate : 32.6 Mb/s
Movie name : build by ***селезень***
Encoded date : UTC 2016-09-26 14:48:17
Writing application : mkvmerge v8.3.0 ('Over the Horizon') 64bit
Writing library : libebml v1.3.1 + libmatroska v1.4.2

Video
ID : 1
Format : AVC
Format/Info : Advanced Video Codec
Format profile : High@L4.1
Format settings, CABAC : Yes
Format settings, ReFrames : 2 frames
Codec ID : V_MPEG4/ISO/AVC
Duration : 1 h 38 min
Bit rate mode : Variable
Bit rate : 26.8 Mb/s
Width : 1 920 pixels
Height : 1 080 pixels
Display aspect ratio : 16:9
Frame rate mode : Constant
Frame rate : 23.976 (24000/1001) FPS
Color space : YUV
Chroma subsampling : 4:2:0
Bit depth : 8 bits
Scan type : Progressive
Bits/(Pixel*Frame) : 0.539
Stream size : 18.4 GiB (82%)
Title : build by ***селезень***
Language : English
Default : Yes
Forced : No

Audio #1
ID : 2
Format : DTS
Format/Info : Digital Theater Systems
Mode : 16
Format settings, Endianness : Big
Codec ID : A_DTS
Duration : 1 h 38 min
Bit rate mode : Constant
Bit rate : 768 kb/s
Channel(s) : 6 channels
Channel positions : Front: L C R, Side: L R, LFE
Sampling rate : 48.0 kHz
Frame rate : 93.750 FPS (512 spf)
Bit depth : 24 bits
Compression mode : Lossy
Stream size : 541 MiB (2%)
Title : Dub-DTS [Blu-Ray EUR]
Language : Russian
Default : Yes
Forced : No

Audio #2
ID : 3
Format : AC-3
Format/Info : Audio Coding 3
Mode extension : CM (complete main)
Format settings, Endianness : Big
Codec ID : A_AC3
Duration : 1 h 38 min
Bit rate mode : Constant
Bit rate : 448 kb/s
Channel(s) : 6 channels
Channel positions : Front: L C R, Side: L R, LFE
Sampling rate : 48.0 kHz
Frame rate : 31.250 FPS (1536 spf)
Compression mode : Lossy
Stream size : 316 MiB (1%)
Title : Dub-AC3 [Blu-Ray EUR]
Language : Russian
Default : No
Forced : No

Audio #3
ID : 4
Format : DTS
Format/Info : Digital Theater Systems
Format profile : MA / Core
Mode : 16
Format settings, Endianness : Big
Codec ID : A_DTS
Duration : 1 h 38 min
Bit rate mode : Variable / Constant
Bit rate : 4 570 kb/s / 1 509 kb/s
Channel(s) : 8 channels / 6 channels
Channel positions : Front: L C R, Side: L R, Back: L R, LFE / Front: L C R, Side: L R, LFE
Sampling rate : 48.0 kHz
Frame rate : 93.750 FPS (512 spf)
Bit depth : 24 bits
Compression mode : Lossless / Lossy
Stream size : 3.15 GiB (14%)
Title : Original
Language : English
Default : No
Forced : No

Text #1
ID : 5
Format : UTF-8
Codec ID : S_TEXT/UTF8
Codec ID/Info : UTF-8 Plain Text
Duration : 1 h 37 min
Bit rate : 149 b/s
Count of elements : 2204
Stream size : 107 KiB (0%)
Title : Full
Language : Russian
Default : No
Forced : No

Text #2
ID : 6
Format : UTF-8
Codec ID : S_TEXT/UTF8
Codec ID/Info : UTF-8 Plain Text
Duration : 1 h 37 min
Bit rate : 97 b/s
Count of elements : 2534
Stream size : 69.9 KiB (0%)
Title : Full
Language : English
Default : No
Forced : No

Text #3
ID : 7
Format : UTF-8
Codec ID : S_TEXT/UTF8
Codec ID/Info : UTF-8 Plain Text
Duration : 1 h 38 min
Bit rate : 103 b/s
Count of elements : 2694
Stream size : 74.4 KiB (0%)
Title : SDH
Language : English
Default : No
Forced : No

Menu
00:00:00.000 : en:Chapter 1
00:03:39.511 : en:Chapter 2
00:08:12.826 : en:Chapter 3
00:11:26.102 : en:Chapter 4
00:17:29.340 : en:Chapter 5
00:22:33.477 : en:Chapter 6
00:27:22.432 : en:Chapter 7
00:31:29.179 : en:Chapter 8
00:35:23.204 : en:Chapter 9
00:38:17.212 : en:Chapter 10
00:41:26.442 : en:Chapter 11
00:44:25.538 : en:Chapter 12
00:50:22.811 : en:Chapter 13
00:54:12.833 : en:Chapter 14
00:56:53.660 : en:Chapter 15
01:01:16.131 : en:Chapter 16
01:04:44.214 : en:Chapter 17
01:08:24.058 : en:Chapter 18
01:12:28.886 : en:Chapter 19
01:16:33.339 : en:Chapter 20
01:21:08.614 : en:Chapter 21
01:25:30.542 : en:Chapter 22
01:28:45.987 : en:Chapter 23
01:33:51.084 : en:Chapter 24

pb.wtf



Скачать Свадебный угар через торрент http://s017.radikal.ru/i444/1609/53/6344426c1079.jpg Скачать фильм Свадебный угар через торрент бесплантно в хорошем качестве Описание:Братья-тусовщики Майк и Дэйв дают в интернете объявление о поиске пар, чтобы отправиться на свадьбу сестры на Гавайях. Они ... 10 10 4
Торрент: Зарегистрирован [2019-12-03 19:44] · скачан: 10 раз
Статус: √ проверено
Размер: 22.42 GB
Как cкачать? Как скачать Свадебный угар через торрент | qTorrent

% Раздел Тема Автор DL S | L
Фильмы [HD 720p, 1080p] (Хороший звук DUB, MVO) [ 8.79 GB ] Свадебный угар / Mike and Dave Need Wedding Dates [2016 BDRip 1080p] DUB [] bober100 Скачать
1 | 0
Фильмы [HD 720p, 1080p] (Хороший звук DUB, MVO) [ 6.34 GB ] Свадебный угар / Mike and Dave Need Wedding Dates [2016 BDRip 720p] DUB [] bober100 Скачать
1 | 0
Фильмы 2016 [DVDrip, WEB-DLRip, HDrip] (DUB, MVO) [ 1.46 GB ] Свадебный угар / Mike and Dave Need Wedding Dates [2016 WEB-DLRip] killermax2013 Скачать
1 | 0
Фильмы без перевода [ 21.86 GB ] Свадебный угар / Mike and Dave Need Wedding Dates [2016 BD Remux] [Оригинал] smaster Скачать
1 | 0
Фильмы 2016 [DVDrip, WEB-DLRip, HDrip] (DUB, MVO) [ 2.18 GB ] Свадебный угар / Mike and Dave Need Wedding Dates [2016 BDRip-AVC] DUB bober100 Скачать
1 | 0
Фильмы 2016 [DVDrip, WEB-DLRip, HDrip] (DUB, MVO) [ 1.46 GB ] Свадебный угар / Mike and Dave Need Wedding Dates [2016 BDRip] - [] Twi7ter Скачать
2 | 0
Фильмы (Blu-ray, BD-Remux, HDDVD) [ 41.98 GB ] Свадебный угар / Mike and Dave Need Wedding Dates [2016 Мело Blu-ray] Russian Mafia Скачать
1 | 0

28-11-2019 20:33  

Отключить всю рекламу на сайте

    Дорогой пользователь! Огромная просьба, поблагодарите релизера, оцените раздачу и оставьте свои комментарий, если Вы скачали Свадебный угар через торрент бесплатно! Внесите свою лепту в развитие PiratBit!
    Комментировать посты могут только пользователи прошедшие не сложную регистрацию
    Показать сообщения:    

    Свадебный угар через торрент
    Скачать бесплатно Свадебный угар
    Свадебный угар скачать торрент
    Свадебный угар смотреть онлайн
    Cкачать фильм Свадебный угар бесплатно
    Свадебный угар скачать торрент в хорошем качестве
    Свадебный угар смотреть онлайн бесплатно в хорошем качестве


    Вы не можете начинать темы
    Вы не можете отвечать на сообщения
    Вы не можете редактировать свои сообщения
    Вы не можете удалять свои сообщения
    Вы не можете голосовать в опросах
    Вы не можете прикреплять файлы к сообщениям
    Вы можете скачивать файлы