Ссылка на приватное зеркало нашего сайта всего за 1$. Внимание количество ограничено!!!

2 сезон

iTunes

1 сезон

1

2 сезон

2 сезон

iTunes

1 сезон

RePack

30

Новинка

ВАЖНО

ИГРА 18+

pack

RePack

MK11
pack

Забери бонус

RePack

jed

!!Акция!!

Alien_Rage

RePack

fifa19

RePack

Assassins Creed: Odyssey

RePack

NEED FOR SPEED™ PAYBACK

4 сезон

9 сезон

Бесстыжие 9 сезон

Все сериалы

все сериалы на PB.wtf

RePack

FAR CRY 5
  

Иные / Freaks (Зак Липовски, Адам Б. Стейн) [2018, Фантастика, триллер, драма, BD Remux 1080p] DUB [iTunes] pb.wtf

Иные через торрент pb.wtf

Размер: 15.23 GB | Добавлен: 11 мес. назад | Торрент скачан:93 раза
Скачать  

04-12-2019 11:03 Иные Скачать торрент  

Иные / Freaks«Они выглядят как мы. Но они — не мы»
Год выпуска: 2018
Страна: Канада, США
Студия: Amazing, Bloomgarden Films, My Way Entertainment
Жанр: Фантастика, триллер, драма
Продолжительность: 01:44:56
Перевод: Дублированный | iTunes
Субтитры: Английские

Режиссер: Зак Липовски, Адам Б. Стейн

rating

В ролях: Эмиль Хирш, Брюс Дерн, Грейс Пак, Аманда Крю, Лекси Колкер, Ава Телек, Мишель Харрисон, Мэтти Финочио, Алекс Паунович, АрДжей Фезерстонхо

Описание: В доме тихого одноэтажного района живёт отец-одиночка с семилетней дочерью Хлои. Папа трясётся над девочкой: запрещает ей выходить из дома, общаться с незнакомыми, а о том, чтобы поиграть с другими детьми, речи вообще не идёт — ведь мир полон опасных людей, которые только и ждут, чтобы напасть и убить. Поэтому маленькая Хлои придумывает себе развлечения сама и даже иногда видит в чулане призрака. Однажды, не сумев противостоять соблазну, девочка всё-таки выходит на улицу, чтобы купить мороженое. Подружившись со старым мороженщиком, Хлои с удивлением обнаруживает, что мир не так опасен, как пугал её отец..

Качество: BD Remux 1080p
Формат: MKV

Видео: MPEG-4 AVC, 1920x1080, 18.2 Mbit/s, 23.976 fps
Аудио #01: 48 kHz, AC3, 5.1, 384 Kbps | iTunes | RUS |
Аудио #02: 48 kHz, DTS-HD MA, 5.1, 2201 Kbps | Оригинал | ENG |
скриншот  скриншот  скриншот  скриншот  скриншот  

General
Unique ID : 281317384521621891777125674882109980002 (0xD3A3C1E9BAEAD29ECE891F4E4BBEBD62)
Complete name : F:Video111Freaks.2018.BDREMUX.1080p.seleZen.mkv
Format : Matroska
Format version : Version 4
File size : 15.2 GiB
Duration : 1 h 44 min
Overall bit rate mode : Variable
Overall bit rate : 20.8 Mb/s
Movie name : Freaks 2018 from селезень
Encoded date : UTC 2019-12-04 10:40:15
Writing application : mkvmerge v40.0.0 ('Old Town Road + Pony') 64-bit
Writing library : libebml v1.3.9 + libmatroska v1.5.2

Video
ID : 1
Format : AVC
Format/Info : Advanced Video Codec
Format profile : High@L4.1
Format settings : CABAC / 4 Ref Frames
Format settings, CABAC : Yes
Format settings, Reference : 4 frames
Codec ID : V_MPEG4/ISO/AVC
Duration : 1 h 44 min
Bit rate mode : Variable
Bit rate : 18.2 Mb/s
Maximum bit rate : 19.0 Mb/s
Width : 1 920 pixels
Height : 1 080 pixels
Display aspect ratio : 16:9
Frame rate mode : Constant
Frame rate : 23.976 (24000/1001) FPS
Color space : YUV
Chroma subsampling : 4:2:0
Bit depth : 8 bits
Scan type : Progressive
Bits/(Pixel*Frame) : 0.366
Stream size : 13.3 GiB (88%)
Language : English
Default : Yes
Forced : No

Audio #1
ID : 2
Format : AC-3
Format/Info : Audio Coding 3
Commercial name : Dolby Digital
Codec ID : A_AC3
Duration : 1 h 44 min
Bit rate mode : Constant
Bit rate : 384 kb/s
Channel(s) : 6 channels
Channel layout : L R C LFE Ls Rs
Sampling rate : 48.0 kHz
Frame rate : 31.250 FPS (1536 SPF)
Bit depth : 16 bits
Compression mode : Lossy
Stream size : 288 MiB (2%)
Title : iTunes
Language : Russian
Service kind : Complete Main
Default : Yes
Forced : Yes

Audio #2
ID : 3
Format : DTS XLL
Format/Info : Digital Theater Systems
Commercial name : DTS-HD Master Audio
Codec ID : A_DTS
Duration : 1 h 44 min
Bit rate mode : Variable
Bit rate : 2 201 kb/s
Channel(s) : 6 channels
Channel layout : C L R Ls Rs LFE
Sampling rate : 48.0 kHz
Frame rate : 93.750 FPS (512 SPF)
Bit depth : 16 bits
Compression mode : Lossless
Stream size : 1.61 GiB (11%)
Title : Original
Language : English
Default : No
Forced : No

Text
ID : 4
Format : UTF-8
Codec ID : S_TEXT/UTF8
Codec ID/Info : UTF-8 Plain Text
Duration : 1 h 39 min
Bit rate : 47 b/s
Count of elements : 1470
Stream size : 34.5 KiB (0%)
Title : Full
Language : English
Default : No
Forced : No

Menu
00:00:00.000 : :Chapter 01
00:08:33.763 : :Chapter 02
00:19:04.643 : :Chapter 03
00:26:30.756 : :Chapter 04
00:34:19.599 : :Chapter 05
00:40:53.534 : :Chapter 06
00:47:31.474 : :Chapter 07
00:57:44.586 : :Chapter 08
01:06:11.301 : :Chapter 09
01:14:00.186 : :Chapter 10
01:24:38.824 : :Chapter 11
01:33:46.621 : :Chapter 12
01:41:14.151 : :Chapter 13

pb.wtf



Скачать Иные через торрент https://i111.fastpic.ru/big/2019/1204/40/73a343eaae8efd3f282faa4381c2b140.jpg Скачать фильм Иные через торрент бесплантно в хорошем качестве Описание: В доме тихого одноэтажного района живёт отец-одиночка с семилетней дочерью Хлои. Папа трясётся над девочкой: запрещает ей ... 10 10 5
Info! Золотая раздача, скачанное не засчитывается.
Торрент: Зарегистрирован [2019-12-04 11:03] · скачан: 93 раз
Статус: √ проверено
Размер: 15.23 GB
Как cкачать? Как скачать Иные через торрент | qTorrent

% Раздел Тема Автор DL S | L
Фильмы 2018 [DVDrip, WEB-DLRip, HDrip] (DUB, MVO) [ 2.54 GB ] Иные / Freaks [2018 BDRip-AVC] DUB [] - ExKinoRay Mr. Grab Скачать
3 | 0
Фильмы (Blu-ray, BD-Remux, HDDVD) [ 15.27 GB ] Иные / Freaks [2018 BDRemux 1080p] DUB [] - ExKinoRay Mr. Grab Скачать
1 | 0
Фильмы 2018 [DVDrip, WEB-DLRip, HDrip] (DUB, MVO) [ 1.41 GB ] Иные / Freaks [2018 BDRip] bober100 Скачать
3 | 0
Фильмы 2018 [DVDrip, WEB-DLRip, HDrip] (DUB, MVO) [ 1.46 GB ] Иные / Freaks [2018 BDRip] - [] Twi7ter Скачать
31 | 3
Фильмы (WEB-DL 720p, 1080p) [ 3.63 GB ] Иные / Freaks [2018 WEB-DL 1080p] bober100 Скачать
3 | 0
Фильмы [HD 720p, 1080p] (Хороший звук DUB, MVO) [ 4.17 GB ] Иные / Freaks [2018 BDRip 720p] bober100 Скачать
3 | 0
Фильмы 2018 [DVDrip, WEB-DLRip, HDrip] (DUB, MVO) [ 1.62 GB ] Иные / Freaks [2018 BDRip-AVC] bober100 Скачать
4 | 0

28-11-2019 20:33  

Отключить всю рекламу на сайте

    Дорогой пользователь! Огромная просьба, поблагодарите релизера, оцените раздачу и оставьте свои комментарий, если Вы скачали Иные через торрент бесплатно! Внесите свою лепту в развитие PiratBit!
    Комментировать посты могут только пользователи прошедшие не сложную регистрацию
    Показать сообщения:    

    Иные через торрент
    Скачать бесплатно Иные
    Иные скачать торрент
    Иные смотреть онлайн
    Cкачать фильм Иные бесплатно
    Иные скачать торрент в хорошем качестве
    Иные смотреть онлайн бесплатно в хорошем качестве


    Вы не можете начинать темы
    Вы не можете отвечать на сообщения
    Вы не можете редактировать свои сообщения
    Вы не можете удалять свои сообщения
    Вы не можете голосовать в опросах
    Вы не можете прикреплять файлы к сообщениям
    Вы можете скачивать файлы