новый адрес
Ссылка на приватное зеркало всего за 1$. Внимание количество ограничено!!!

iTunes

1+1

iTunes

мы

WEB-DL

1

iTunes

Чернобыль

iTunes

Ральф против интернета

Лицензия

ПШазам

Лицензия

Оно 2

Лицензия

30
pack

Вам бонус

ВАЖНО

!!Акция!!

Alien_RageХит недели

RePack

Resident Evil 21

ИГРА 18+

pack

RePack

jed

!!Акция!!

Alien_Rage

RePack

fifa19

RePack

Assassins Creed: Odyssey

RePack

NEED FOR SPEED™ PAYBACK

3 сезон

9 сезон

Бесстыжие 9 сезон

Все сериалы

все сериалы на PB.wtf

RePack

FAR CRY 5
Ребята, катастрофически не хватает 1900р. для оплаты серверов за Октябрь (всвязи с блокировками трафик упал в 3 раза), 1-2р., выручайте.
  

Побег / The Getaway (Сэм Пекинпа) [1972, боевик, приключения, BDRip-AVC] [VO] (Сукa-Падла) + [AVO] (Иванов) pb.wtf

Побег через торрент pb.wtf

Размер: 2.86 GB | Добавлен: 4 д. назад | Торрент скачан:6 раз
Скачать  

04-12-2019 18:45 Побег Скачать торрент  

Побег / The Getaway Год выпуска: 1972
Страна: США
Жанр: боевик, приключения
Продолжительность: 02:02:49
Перевод 1: Одноголосый закадровый "Сукa-Падлa"
Перевод 2: Авторский (одноголосый закадровый) Михаил Иванов
Субтитры: английские

Режиссер: Сэм Пекинпа /Sam Peckinpah

В ролях: Стив МакКуин /Steve McQueen/, Эли МакГро /Ali MacGraw/, Бен Джонсон /Ben Johnson/, Сэлли Стразерс /Sally Struthers/, Аль Леттьери /Al Lettieri/, Даб Тэйлор /Dub Taylor/, Слим Пикенс /Slim Pickens/, Бо Хопкинс /Bo Hopkins/, Ричард Брайт /Richard Bright/, Джек Додсон /Jack Dodson

О фильме: Знаменитого грабителя банков по имени Док МакКой некие сильные мира сего освобождают из тюрьмы для совершения ограбления, чтобы списать на него крупную недостачу и затем убрать. Но всё идёт не по плану.

rating

Качество видео: BDRip-AVC ~СЭМПЛ~

Формат видео: MKV
Видео: MPEG4 Video (H264) 720x300 23.976fps 2760Kbps
Аудио 1: Dolby AC3 48KHz 2ch 192Kbps = VO
Аудио 2: Dolby AC3 48KHz 2ch 192Kbps = AVO
Аудио 3: Dolby AC3 48KHz 2ch 192Kbps = EN
Формат субтитров: softsub (SRT)

По роману Джима Томпсона. Захватывающий дух приключенческий боевик о грабителе банков (Маккуин) и его напарнице и жене (Макгро). Его вытягивают из тюрьмы, чтобы ограбить банк, деньги из которого частично уже были разворованы. После ограбления, когда его должны были убить, МакКуин перехватывает инициативу, и с саквояжем, полным денег, устремляется вместе с женой к мексиканской границе. За ними гонятся и полиция, и другие преступники. Не фильм, а шедевр.
Format                                   : Matroska
Format version : Version 2
File size : 2.86 GiB
Duration : 2 h 2 min
Overall bit rate : 3 339 kb/s
Movie name : THE GETAWAY_1972_BDRIP_СУКАПАДЛА_ИВАНОВ_ENG_KBC
Encoded date : UTC 2019-12-04 17:01:23
Writing application : mkvmerge v6.9.1 ('Blue Panther') 32bit built on Apr 18 2014 18:15:44
Writing library : libebml v1.3.0 + libmatroska v1.4.1

Video
ID : 1
Format : AVC
Format/Info : Advanced Video Codec
Format profile : High@L3.1
Format settings : CABAC / 7 Ref Frames
Format settings, CABAC : Yes
Format settings, RefFrames : 7 frames
Codec ID : V_MPEG4/ISO/AVC
Duration : 2 h 2 min
Bit rate : 2 760 kb/s
Width : 720 pixels
Height : 300 pixels
Display aspect ratio : 2.40:1
Frame rate mode : Constant
Frame rate : 23.976 (24000/1001) FPS
Color space : YUV
Chroma subsampling : 4:2:0
Bit depth : 8 bits
Scan type : Progressive
Bits/(Pixel*Frame) : 0.533
Stream size : 2.31 GiB (81%)
Title : The Getaway 1972
Writing library : x264 core 152 r2851kMod ba24899
Encoding settings : cabac=1 / ref=7 / deblock=1:-1:-1 / analyse=0x3:0x113 / me=umh / subme=9 / psy=1 / fade_compensate=0.00 / psy_rd=1.00:0.20 / mixed_ref=1 / me_range=24 / chroma_me=1 / trellis=2 / 8x8dct=1 / cqm=0 / deadzone=21,11 / fast_pskip=0 / chroma_qp_offset=-3 / threads=6 / lookahead_threads=1 / sliced_threads=0 / nr=0 / decimate=0 / interlaced=0 / bluray_compat=0 / constrained_intra=0 / bframes=7 / b_pyramid=2 / b_adapt=2 / b_bias=0 / direct=3 / weightb=1 / open_gop=0 / weightp=2 / keyint=250 / keyint_min=23 / scenecut=40 / intra_refresh=0 / rc_lookahead=50 / rc=2pass / mbtree=1 / bitrate=2760 / ratetol=1.0 / qcomp=0.60 / qpmin=0 / qpmax=69 / qpstep=4 / cplxblur=20.0 / qblur=0.5 / vbv_maxrate=14000 / vbv_bufsize=14000 / nal_hrd=none / filler=0 / ip_ratio=1.40 / aq=1:1.00
Language : English
Default : Yes
Forced : No

Audio #1
ID : 2
Format : AC-3
Format/Info : Audio Coding 3
Commercial name : Dolby Digital
Codec ID : A_AC3
Duration : 2 h 2 min
Bit rate mode : Constant
Bit rate : 192 kb/s
Channel(s) : 2 channels
Channel layout : L R
Sampling rate : 48.0 kHz
Frame rate : 31.250 FPS (1536 SPF)
Bit depth : 16 bits
Compression mode : Lossy
Stream size : 169 MiB (6%)
Title : -Падла
Language : Russian
Service kind : Complete Main
Default : Yes
Forced : No

Audio #2
ID : 3
Format : AC-3
Format/Info : Audio Coding 3
Commercial name : Dolby Digital
Codec ID : A_AC3
Duration : 2 h 2 min
Bit rate mode : Constant
Bit rate : 192 kb/s
Channel(s) : 2 channels
Channel layout : L R
Sampling rate : 48.0 kHz
Frame rate : 31.250 FPS (1536 SPF)
Bit depth : 16 bits
Compression mode : Lossy
Stream size : 169 MiB (6%)
Title : Иванов
Language : Russian
Service kind : Complete Main
Default : No
Forced : No

Audio #3
ID : 4
Format : AC-3
Format/Info : Audio Coding 3
Commercial name : Dolby Digital
Codec ID : A_AC3
Duration : 2 h 2 min
Bit rate mode : Constant
Bit rate : 192 kb/s
Channel(s) : 1 channel
Channel layout : C
Sampling rate : 48.0 kHz
Frame rate : 31.250 FPS (1536 SPF)
Bit depth : 16 bits
Compression mode : Lossy
Stream size : 169 MiB (6%)
Title : English
Language : English
Service kind : Complete Main
Default : No
Forced : No

Text
ID : 5
Format : UTF-8
Codec ID : S_TEXT/UTF8
Codec ID/Info : UTF-8 Plain Text
Title : eng
Language : English
Default : No
Forced : No

Menu
00:00:00.000 : en:Chapter 00
00:07:52.305 : en:Chapter 01
00:10:39.639 : en:Chapter 02
00:15:27.259 : en:Chapter 03
00:21:19.611 : en:Chapter 04
00:24:02.941 : en:Chapter 05
00:26:57.616 : en:Chapter 06
00:30:47.178 : en:Chapter 07
00:37:31.916 : en:Chapter 08
00:40:46.944 : en:Chapter 09
00:45:08.372 : en:Chapter 10
00:47:34.184 : en:Chapter 11
00:50:45.542 : en:Chapter 12
00:53:26.036 : en:Chapter 13
00:55:53.183 : en:Chapter 14
00:57:33.950 : en:Chapter 15
00:59:59.929 : en:Chapter 16
01:09:28.330 : en:Chapter 17
01:11:06.929 : en:Chapter 18
01:16:33.255 : en:Chapter 19
01:24:29.397 : en:Chapter 20
01:26:19.674 : en:Chapter 21
01:30:25.086 : en:Chapter 22
01:33:50.958 : en:Chapter 23
01:34:15.149 : en:Chapter 24
01:37:24.338 : en:Chapter 25
01:40:16.176 : en:Chapter 26
01:43:01.842 : en:Chapter 27
01:46:42.896 : en:Chapter 28
01:50:10.437 : en:Chapter 29
01:54:24.357 : en:Chapter 30
01:57:22.035 : en:Chapter 31
02:00:10.536 : en:Chapter 32
скриншот  скриншот  скриншот  
pb.wtf



Скачать Побег через торрент https://i111.fastpic.ru/big/2019/1204/80/01b642c3d9df69e3e3dac0637e9e3080.jpg Скачать фильм Побег через торрент бесплантно в хорошем качестве О фильме: Знаменитого грабителя банков по имени Док МакКой некие сильные мира сего освобождают из тюрьмы для совершения ограбления, чтобы ... 10 10 1
Торрент: Зарегистрирован [2019-12-04 18:45] · скачан: 6 раз
Статус: √ проверено
Размер: 2.86 GB
Как cкачать? Как скачать Побег через торрент | qTorrent

% Раздел Тема Автор DL S | L
Фильмы [HD 720p, 1080p] (Хороший звук DUB, MVO) [ 16.92 GB ] Побег / The Getaway [1994 BDRip 1080p by msltel] MVO 4 x AVO msltel Скачать
1 | 0
Фильмы [HD 720p, 1080p] (Хороший звук DUB, MVO) [ 5.92 GB ] Побег / The Getaway [1994 BDRip 720p by msltel] MVO 4 x AVO msltel Скачать
1 | 0
Фильмы [HD 720p, 1080p] (Хороший звук DUB, MVO) [ 7.95 GB ] Побег / The Getaway [1972 BDRip 720p от _denis_100 / NNNB] 2xMVO + AVO + Original + Sub _denis_100 Скачать
1 | 0
Фильмы до 2000 г. [ 2.18 GB ] Побег / The Getaway [1994 HDRip] MVO gunk Скачать
1 | 0
Фильмы до 2000 г. [ 2.19 GB ] Побег / The Getaway [1972 BDRip] 2хMVO + VO -=Cherry=- Скачать
1 | 0

28-11-2019 20:33  

Отключить всю рекламу на сайте


    Дорогой пользователь! Огромная просьба, поблагодарите релизера, оцените раздачу и оставьте свои комментарий, если Вы скачали Побег через торрент бесплатно! Внесите свою лепту в развитие PiratBit!
    Комментировать посты могут только пользователи прошедшие не сложную регистрацию
    Показать сообщения:    

    Побег через торрент
    Скачать бесплатно Побег
    Побег скачать торрент
    Побег смотреть онлайн
    Cкачать фильм Побег бесплатно
    Побег скачать торрент в хорошем качестве
    Побег смотреть онлайн бесплатно в хорошем качестве


    Вы не можете начинать темы
    Вы не можете отвечать на сообщения
    Вы не можете редактировать свои сообщения
    Вы не можете удалять свои сообщения
    Вы не можете голосовать в опросах
    Вы не можете прикреплять файлы к сообщениям
    Вы можете скачивать файлы