новый адрес
Ссылка на приватное зеркало всего за 1$. Внимание количество ограничено!!!

iTunes

1+1

iTunes

мы

WEB-DL

1

iTunes

Чернобыль

iTunes

Ральф против интернета

Лицензия

ПШазам

Лицензия

Оно 2

Лицензия

30
pack

Вам бонус

ВАЖНО

!!Акция!!

Alien_RageХит недели

RePack

Resident Evil 21

ИГРА 18+

pack

RePack

jed

!!Акция!!

Alien_Rage

RePack

fifa19

RePack

Assassins Creed: Odyssey

RePack

NEED FOR SPEED™ PAYBACK

3 сезон

9 сезон

Бесстыжие 9 сезон

Все сериалы

все сериалы на PB.wtf

RePack

FAR CRY 5
Ребята, катастрофически не хватает 1900р. для оплаты серверов за Октябрь (всвязи с блокировками трафик упал в 3 раза), 1-2р., выручайте.
  

Война миров / The War of the Worlds / Сезон: 1 / Серии: 1-3 из 3 (Крэйг Вивейрос) [2019, фантастика, драма, WEB-DLRip] MVO [TVShows] pb.wtf

Война миров через торрент pb.wtf

Раздают: 8 [ 60 KB/s ] Качают: 1 [ 0 KB/s ]
Размер: 2.49 GB | Добавлен: 3 д. назад | Торрент скачан:45 раз
Скачать  

04-12-2019 19:52 Война миров Скачать торрент  

Война миров / The War of the Worlds
Год выпуска: 2019
Страна: Великобритания
Жанр: фантастика, драма
Продолжительность: ~ 00:55:00
Перевод: Профессиональный многоголосый | TVShows
Субтитры: отсутствуют

Режиссер: Крэйг Вивейрос

rating

В ролях: Рейф Сполл, Элинор Томлинсон, Филип Гаскойн, Джонатан Арис, Талия Блэр, Фрейя Аллан, Сэм Бенжамин, Роберт Карлайл, Руперт Грейвз Крэйг, Томас Ламберт и другие.

Описание: В центре истории — только начавшие совместную жизнь Джордж и Эми, которым приходится столкнуться с ужасом инопланетного вторжения.

Качество: WEB-DLRip
Формат: AVI

Видео: XVID, 720x400, 25.000 fps, 2000 kbps avg, 0.278 bit/pixel
Аудио Rus: AC3, 48.0 KHz, 2 channels, 192 kbps
скриншот  скриншот  скриншот  скриншот  скриншот  

General
Complete name : D:\Сериалы\Война миров (Сезон 1) TVShows\The.War.Of.The.Worlds.S01E01.See.S01E01.WEB-DLRip.RGzsRutracker.Celta88.avi
Format : AVI
Format/Info : Audio Video Interleave
File size : 858 MiB
Duration : 54 min 30 s
Overall bit rate : 2 202 kb/s
Writing application : VirtualDubMod 1.5.10.3 | www.virtualdub-fr.org || (build 2550/release)
Writing library : VirtualDubMod build 2550/release

Video
ID : 0
Format : MPEG-4 Visual
Format profile : Advanced Simple@L5
Format settings, BVOP : 1
Format settings, QPel : No
Format settings, GMC : No warppoints
Format settings, Matrix : Custom
Codec ID : XVID
Codec ID/Hint : XviD
Duration : 54 min 30 s
Bit rate : 2 000 kb/s
Width : 720 pixels
Height : 400 pixels
Display aspect ratio : 16:9
Frame rate : 25.000 FPS
Color space : YUV
Chroma subsampling : 4:2:0
Bit depth : 8 bits
Scan type : Progressive
Compression mode : Lossy
Bits/(Pixel*Frame) : 0.278
Stream size : 780 MiB (91%)
Writing library : XviD 73

Audio
ID : 1
Format : AC-3
Format/Info : Audio Coding 3
Mode extension : CM (complete main)
Format settings, Endianness : Big
Codec ID : 2000
Duration : 54 min 30 s
Bit rate mode : Constant
Bit rate : 192 kb/s
Channel(s) : 2 channels
Channel positions : Front: L R
Sampling rate : 48.0 kHz
Frame rate : 31.250 FPS (1536 spf)
Bit depth : 16 bits
Compression mode : Lossy
Stream size : 74.9 MiB (9%)
Alignment : Split accross interleaves
Interleave, duration : 40 ms (1.00 video frame)
Interleave, preload duratio : 500 ms

Внимание! Раздача ведётся путём добавления новых серий; при каждом добавлении создаётся новый торрент. Чтобы начать докачку новой серии, пользователям необходимо сделать следующее:
(1) остановить скачивание,
(2) удалить старый торрент у себя из клиента (старые серии удалять не надо),
(3) скачать новый торрент и запустить его у себя в клиенте вместо старого, при этом указать клиенту путь в старую папку куда и должно происходить скачивание новых серий.

Ваш клиент при этом должен произвести хеширование (проверку) старой папки (если не производит сам - помогите ему сделать это), и будет докачивать только те серии которых у вас ещё нет. Старые серии при этом не удаляются, а продолжают раздаваться!

Eсли вы уже удалили старые серии, то предотвратить повторную закачку старых серий можно, отжав галочку в соответсвующих местах при запуске нового торрента. По возможности, желательно не удалять старые серии как можно дольше чтобы релизёр не столько продолжал раздавать старые серии, а смог сконцентрироваться на новых.
pb.wtf



Скачать Война миров через торрент https://a.radikal.ru/a34/1910/83/06c353f34496.jpg Скачать фильм Война миров через торрент бесплантно в хорошем качестве Описание: В центре истории — только начавшие совместную жизнь Джордж и Эми, которым приходится столкнуться с ужасом инопланетного ... 10 10 3
Торрент: Зарегистрирован [2019-12-05 06:09] · скачан: 45 раз
Статус: √ проверено
Размер: 2.49 GB
Как cкачать? Как скачать Война миров через торрент | qTorrent

% Раздел Тема Автор DL S | L
Зарубежные сериалы [ 8.55 GB ] Война миров / The War of the Worlds / Сезон: 1 / Серии: 1-3 из 3 [2019 WEB-DL 1080p] [MVO] killermax2013 Скачать
4 | 1
Зарубежные сериалы [ 8.6 GB ] Война миров / The War of the Worlds / Сезон: 1 / Серии: 1-3 из 3 [2019 WEB-DL 1080p] MVO [Lostfilm] bober100 Скачать
5 | 1

28-11-2019 20:33  

Отключить всю рекламу на сайте

    Дорогой пользователь! Огромная просьба, поблагодарите релизера, оцените раздачу и оставьте свои комментарий, если Вы скачали Война миров через торрент бесплатно! Внесите свою лепту в развитие PiratBit!
    Комментировать посты могут только пользователи прошедшие не сложную регистрацию
    Показать сообщения:    

    Война миров через торрент
    Скачать бесплатно Война миров
    Война миров скачать торрент
    Война миров смотреть онлайн
    Cкачать фильм Война миров бесплатно
    Война миров скачать торрент в хорошем качестве
    Война миров смотреть онлайн бесплатно в хорошем качестве


    Вы не можете начинать темы
    Вы не можете отвечать на сообщения
    Вы не можете редактировать свои сообщения
    Вы не можете удалять свои сообщения
    Вы не можете голосовать в опросах
    Вы не можете прикреплять файлы к сообщениям
    Вы можете скачивать файлы