Ссылка на приватное зеркало всего за 1$. Внимание количество ограничено!!!


iTunes

1+1

iTunes

мы

WEB-DL

1

iTunes

Чернобыль

iTunes

Ральф против интернета

Лицензия

ПШазам

Лицензия

Оно 2

WEB-DL

30
pack

Вам бонус

ВАЖНО

!!Акция!!

Alien_RageХит недели

RePack

Resident Evil 21

ИГРА 18+

pack

RePack

jed

!!Акция!!

Alien_Rage

RePack

fifa19

RePack

Assassins Creed: Odyssey

RePack

NEED FOR SPEED™ PAYBACK

4 сезон

9 сезон

Бесстыжие 9 сезон

Все сериалы

все сериалы на PB.wtf

RePack

FAR CRY 5
Ребята, катастрофически не хватает 1900р. для оплаты серверов за Октябрь (всвязи с блокировками трафик упал в 3 раза), 1-2р., выручайте.
  

Арахисовый сокол / The Peanut Butter Falcon (Тайлер Нилсон, Майк Шварц) [2019, Драма, комедия, приключения, BD Remux 1080p] DUB [iTunes] pb.wtf

Арахисовый сокол через торрент pb.wtf

Раздают: 3 [ 115 KB/s ]
Размер: 18.31 GB | Добавлен: 11 д. назад | Торрент скачан:47 раз
Скачать  

04-12-2019 19:58 Арахисовый сокол Скачать торрент  

Арахисовый сокол / The Peanut Butter Falcon
Год выпуска: 2019
Страна: США
Студия: Armory Films, 1993, Lucky Treehouse
Жанр: Драма, комедия, приключения
Продолжительность: 01:36:56
Перевод: Дублированный | iTunes
Субтитры: Русские (Full), английские

Режиссер: Тайлер Нилсон, Майк Шварц

rating

В ролях: Шайа ЛаБаф, Дакота Джонсон, Зак Готтзаген, Джон Хоукс, Томас Хейден Чёрч, Брюс Дерн, Джон Бернтал, Джейк Робертс, Мик Фоли

Описание: Большое путешествие начинается с шага, а легендарное — с полета. Вылетев в окно, герой очутился в мире, где чего-то не хватало. Его новому другу — крупной суммы денег. Паре головорезов — головы друга. Молодой медсестре — любви. А ему — путешествий на плоту, погонь, пылающих костров и немного арахисового масла.

Качество: BD Remux 1080p
Формат: MKV

Видео: MPEG-4 AVC, 1920x1080, 23.0 Mbit/s, 23.976 fps
Аудио #01: 48 kHz, AC3, 5.1, 384 Kbps | iTunes | RUS |
Аудио #02: 48 kHz, DTS-HD MA, 5.1, 3656 Kbps | Оригинал | ENG |
скриншот  скриншот  скриншот  скриншот  скриншот  

General
Unique ID : 151815892076678137301901488357915986815 (0x7236AD60CF06F65C2ED8FDECD8EF8B7F)
Complete name : F:Video111The.Peanut.Butter.Falcon.2019.BDREMUX.1080p.seleZen.mkv
Format : Matroska
Format version : Version 4
File size : 18.3 GiB
Duration : 1 h 36 min
Overall bit rate mode : Variable
Overall bit rate : 27.0 Mb/s
Movie name : The Peanut Butter Falcon 2019 from селезень
Encoded date : UTC 2019-12-04 19:47:52
Writing application : mkvmerge v40.0.0 ('Old Town Road + Pony') 64-bit
Writing library : libebml v1.3.9 + libmatroska v1.5.2

Video
ID : 1
Format : AVC
Format/Info : Advanced Video Codec
Format profile : High@L4.1
Format settings : CABAC / 4 Ref Frames
Format settings, CABAC : Yes
Format settings, Reference : 4 frames
Codec ID : V_MPEG4/ISO/AVC
Duration : 1 h 36 min
Bit rate mode : Variable
Bit rate : 23.0 Mb/s
Maximum bit rate : 35.0 Mb/s
Width : 1 920 pixels
Height : 1 080 pixels
Display aspect ratio : 16:9
Frame rate mode : Constant
Frame rate : 23.976 (24000/1001) FPS
Standard : NTSC
Color space : YUV
Chroma subsampling : 4:2:0
Bit depth : 8 bits
Scan type : Progressive
Bits/(Pixel*Frame) : 0.463
Stream size : 15.6 GiB (85%)
Language : English
Default : Yes
Forced : No
Color range : Limited
Color primaries : BT.709
Transfer characteristics : BT.709
Matrix coefficients : BT.709

Audio #1
ID : 2
Format : AC-3
Format/Info : Audio Coding 3
Commercial name : Dolby Digital
Codec ID : A_AC3
Duration : 1 h 36 min
Bit rate mode : Constant
Bit rate : 384 kb/s
Channel(s) : 6 channels
Channel layout : L R C LFE Ls Rs
Sampling rate : 48.0 kHz
Frame rate : 31.250 FPS (1536 SPF)
Bit depth : 16 bits
Compression mode : Lossy
Stream size : 266 MiB (1%)
Title : iTunes
Language : Russian
Service kind : Complete Main
Default : Yes
Forced : Yes

Audio #2
ID : 3
Format : DTS XLL
Format/Info : Digital Theater Systems
Commercial name : DTS-HD Master Audio
Codec ID : A_DTS
Duration : 1 h 36 min
Bit rate mode : Variable
Bit rate : 3 656 kb/s
Channel(s) : 6 channels
Channel layout : C L R Ls Rs LFE
Sampling rate : 48.0 kHz
Frame rate : 93.750 FPS (512 SPF)
Bit depth : 24 bits
Compression mode : Lossless
Stream size : 2.48 GiB (14%)
Title : Original
Language : English
Default : No
Forced : No

Text #1
ID : 4
Format : UTF-8
Codec ID : S_TEXT/UTF8
Codec ID/Info : UTF-8 Plain Text
Duration : 1 h 30 min
Bit rate : 91 b/s
Count of elements : 1418
Stream size : 60.5 KiB (0%)
Title : Full [MENINSUB]
Language : Russian
Default : No
Forced : No

Text #2
ID : 5
Format : UTF-8
Codec ID : S_TEXT/UTF8
Codec ID/Info : UTF-8 Plain Text
Duration : 1 h 35 min
Bit rate : 67 b/s
Count of elements : 1551
Stream size : 47.1 KiB (0%)
Title : Full
Language : English
Default : No
Forced : No

Text #3
ID : 6
Format : UTF-8
Codec ID : S_TEXT/UTF8
Codec ID/Info : UTF-8 Plain Text
Duration : 1 h 35 min
Bit rate : 74 b/s
Count of elements : 1710
Stream size : 52.5 KiB (0%)
Title : SDH
Language : English
Default : No
Forced : No

Menu
00:00:00.000 : en:Chapter 01
00:08:14.243 : en:Chapter 02
00:17:54.073 : en:Chapter 03
00:25:26.191 : en:Chapter 04
00:32:30.949 : en:Chapter 05
00:42:37.555 : en:Chapter 06
00:50:34.906 : en:Chapter 07
00:58:02.270 : en:Chapter 08
01:04:19.856 : en:Chapter 09
01:13:20.396 : en:Chapter 10
01:21:12.617 : en:Chapter 11
01:31:09.464 : en:Chapter 12

pb.wtf



Скачать Арахисовый сокол через торрент https://img15.lostpic.net/2019/12/04/851642dce47186a57dd6fae1defaa518.jpg Скачать фильм Арахисовый сокол через торрент бесплантно в хорошем качестве Описание: Большое путешествие начинается с шага, а легендарное — с полета. Вылетев в окно, герой очутился в мире, где чего-то не хватало. ... 10 10 2
Торрент: Зарегистрирован [2019-12-04 19:58] · скачан: 47 раз
Статус: √ проверено
Размер: 18.31 GB
Как cкачать? Как скачать Арахисовый сокол через торрент | qTorrent

% Раздел Тема Автор DL S | L
Фильмы 2019 [DVDrip, WEB-DLRip, HDrip] (DUB, MVO) [ 1.42 GB ] Арахисовый сокол / The Peanut Butter Falcon [2019 BDRip] - Twi7ter Скачать
78 | 13
Фильмы 2019 [DVDrip, WEB-DLRip, HDrip] (DUB, MVO) [ 2.09 GB ] Арахисовый сокол / The Peanut Butter Falcon [2019 BDRip-AVC] +AVO [BadBajo] bober100 Скачать
8 | 0
Фильмы с авторской озвучкой [ 1.67 GB ] Арахисовый сокол / The Peanut Butter Falcon [2019 BDRip-AVC] AVO [А.Важенин [BadBajo] - ExKinoRay Enigma2010 Скачать
27 | 0
T Фильмы с авторской озвучкой [ 8.98 GB ] Арахисовый сокол / The Peanut Butter Falcon [2019 BDRip 1080p] AVO [А.Важенин [BadBajo] bober100 Скачать
1 | 0

28-11-2019 20:33  

Отключить всю рекламу на сайте

    Дорогой пользователь! Огромная просьба, поблагодарите релизера, оцените раздачу и оставьте свои комментарий, если Вы скачали Арахисовый сокол через торрент бесплатно! Внесите свою лепту в развитие PiratBit!
    Комментировать посты могут только пользователи прошедшие не сложную регистрацию
    Показать сообщения:    

    Арахисовый сокол через торрент
    Скачать бесплатно Арахисовый сокол
    Арахисовый сокол скачать торрент
    Арахисовый сокол смотреть онлайн
    Cкачать фильм Арахисовый сокол бесплатно
    Арахисовый сокол скачать торрент в хорошем качестве
    Арахисовый сокол смотреть онлайн бесплатно в хорошем качестве


    Вы не можете начинать темы
    Вы не можете отвечать на сообщения
    Вы не можете редактировать свои сообщения
    Вы не можете удалять свои сообщения
    Вы не можете голосовать в опросах
    Вы не можете прикреплять файлы к сообщениям
    Вы можете скачивать файлы