Anonymous, доброй ночи, присоединяйтесь к нам в Telegram!, здесь всегда актуальный адрес сайта, оперативная поддержка и многое другое!

>

5.6

iTunes

7.4

iTunes

7.9

MVO

1

7.7

1 сезон

6.8

iTunes

7.3

1 сезон

13

6.7

1 сезон

8.3

RePack

30

ULTIMATE

pack

9.9

Лицензия

ВАЖНО

ИГРА 18+

pack

7.3

RePack

MK11

7.7

RePack

jed

7.8

RePack

fifa19

8.5

RePack

RDR2

RePack

NEED FOR SPEED™ PAYBACK

4 сезон

9 сезон

Бесстыжие 9 сезон

Все сериалы

все сериалы на PB.wtf

RePack

FAR CRY 5

Anonymous, доброй ночи, мы катастрофически не успеваем собрать деньги на оплату серверов, помогите нам пожалуйста 5,10,15р., для нас важна любая помощь . В качестве благодарности мы отключим Вам всю рекламу на сайте (укажите свой ник в строку Ваше имя)!

×
  
Magnet ссылка

Полицейский с Рублёвки. Полицейская академия / Сезон: 5 / Серии: 1-8 из 8 (Илья Куликов) [2019, Комедия, криминал (18+), WEB-DLRip] pb.wtf

Полицейский с Рублёвки. Полицейская академия через торрент pb.wtf

Раздают: 1 [ 0 KB/s ]
Размер: 2.54 GB | Добавлен: 1 год 10 мес. назад | Торрент скачан:722 раза
Смотреть онлайн Полицейский с Рублёвки. Полицейская академия | Скачать    Ребята, помогите собрать деньги на оплату серверов!!!

04-12-2019 21:19 Полицейский с Рублёвки. Полицейская академия Скачать торрент  

Полицейский с Рублёвки. Полицейская академия
Год выпуска: 2019
Страна: Россия
Жанр: Комедия, криминал
Продолжительность: ~ 00:25:00
Перевод: Не требуется
Субтитры: отсутствуют
• Версия 18+. Внимание! Присутствует ненормативная лексика.

Режиссер: Илья Куликов

rating

В ролях: Сергей Бурунов, Роман Попов, Георгий Клинаев, Ирина Вилкова, Татьяна Бабенкова, Софья Каштанова, Ростислав Гулбис, Сергей Штатнов, Александра Бортич, Александр Дерепко, Светлана Суханова, Мария Безродная, Анна Котова, Велимир Русаков, Константин Быков

Описание: Вернувшись из отпуска, глава отдела полиции Барвихи Владимир Яковлев получает новое назначение: он становится начальником созданной на Рублёвке Академии российской полиции. Ему предстоит воспитать и обучить новое поколение полицейских, стражей закона будущего. В этом непростом деле ему помогут старые друзья и коллеги: следователь Игорь Мухич, оперативники Алиса, Олег, Саша и Дима. И все было бы прекрасно, если бы не… Гриша Измайлов.

Качество: WEB-DLRip
Формат: AVI

Видео: 720x304 (2.37:1), 25 fps, XviD ~1700 kbps avg, 0.311 bit/pixel
Аудио: 48.0 kHz, AC3 Dolby Digital, 2/0 (L,R) ch, ~ 192 kbps
скриншот  скриншот  скриншот  скриншот  

Общее
Полное имя : D:\Polizeyskiy.S.Rublevki.S05.2019.WEB-DLRip.ExKinoRay\Polizeyskiy.S.Rublevki.S05.E01.2019.WEB-DLRip.ExKinoRay.avi
Формат : AVI
Формат/Информация : Audio Video Interleave
Размер файла : 349 Мбайт
Продолжительность : 25 м. 40 с.
Общий поток : 1901 Кбит/сек
Программа кодирования : VirtualDubMod 1.5.10.3 | www.virtualdub-fr.org || (build 2550/release)
Библиотека кодирования : VirtualDubMod build 2550/release

Видео
Идентификатор : 0
Формат : MPEG-4 Visual
Профиль формата : Advanced Simple@L5
Параметр BVOP формата : 1
Параметр QPel формата : Нет
Параметр GMC формата : Без точки перехода
Параметр матрицы формата : Выборочная
Идентификатор кодека : XVID
Идентификатор кодека/Подсказка : XviD
Продолжительность : 25 м. 40 с.
Битрейт : 1700 Кбит/сек
Ширина : 720 пикселей
Высота : 304 пикселя
Соотношение сторон : 2,35:1
Частота кадров : 25,000 кадров/сек
Цветовое пространство : YUV
Субдискретизация насыщенности : 4:2:0
Битовая глубина : 8 бит
Тип развёртки : Прогрессивная
Метод сжатия : С потерями
Бит/(Пиксели*Кадры) : 0.311
Размер потока : 312 Мбайт (89%)
Библиотека кодирования : XviD 73

Аудио
Идентификатор : 1
Формат : AC-3
Формат/Информация : Audio Coding 3
Расширение режима : CM (complete main)
Параметр Endianness формата : Big
Идентификатор кодека : 2000
Продолжительность : 25 м. 39 с.
Вид битрейта : Постоянный
Битрейт : 192 Кбит/сек
Каналы : 2 канала
Расположение каналов : Front: L R
Частота : 48,0 КГц
Частота кадров : 31,250 кадров/сек (1536 spf)
Метод сжатия : С потерями
Размер потока : 35,2 Мбайт (10%)
Выравнивание : Разделение по промежуткам
Продолжительность промежутка : 40 мс. (1,00 видеокадр)
Время предзагрузки промежутка : 500 мс.

Внимание! Раздача ведётся путём добавления новых серий; при каждом добавлении создаётся новый торрент. Чтобы начать докачку новой серии, пользователям необходимо сделать следующее:
(1) остановить скачивание,
(2) удалить старый торрент у себя из клиента (старые серии удалять не надо),
(3) скачать новый торрент и запустить его у себя в клиенте вместо старого, при этом указать клиенту путь в старую папку куда и должно происходить скачивание новых серий.

Ваш клиент при этом должен произвести хеширование (проверку) старой папки (если не производит сам - помогите ему сделать это), и будет докачивать только те серии которых у вас ещё нет. Старые серии при этом не удаляются, а продолжают раздаваться!

Eсли вы уже удалили старые серии, то предотвратить повторную закачку старых серий можно, отжав галочку в соответсвующих местах при запуске нового торрента. По возможности, желательно не удалять старые серии как можно дольше чтобы релизёр не столько продолжал раздавать старые серии, а смог сконцентрироваться на новых.
pb.wtf



Скачать Полицейский с Рублёвки. Полицейская академия через торрент https://img15.lostpic.net/2019/12/05/dad84b4b34e488bb30db665ba0aa9f5f.jpg Скачать, смотреть онлайн Полицейский с Рублёвки. Полицейская академия бесплантно в хорошем качестве Описание: Вернувшись из отпуска, глава отдела полиции Барвихи Владимир Яковлев получает новое назначение: он становится начальником ... 9.5 10 47
Торрент: Зарегистрирован [2019-12-14 18:55] · скачан: 722 раз
Статус: √ проверено
Размер: 2.54 GB
Как cкачать? Как скачать Полицейский с Рублёвки. Полицейская академия через торрент | UTorrent

% Раздел Тема Автор DL S | L
TNT serials [ 2.93 GB ] Полицейский с Рублевки. Полицейская академия / Сезон: 5 / Серии: 1-8 из 8 [2019 WEB-DLRip-AVC] bober100 Скачать
2 | 0


Последний раз редактировалось: bober100 (2019-12-14 20:46), всего редактировалось 6 раз(а)

28-11-2019 20:33  

Отключить всю рекламу на сайте

08-12-2019 15:18 Полицейский с Рублёвки. Полицейская академия Скачать торрент  

спасибо очень крутоpb.wtf



11-12-2019 13:27 Полицейский с Рублёвки. Полицейская академия Скачать торрент  

pb.wtf



    Дорогой пользователь! Огромная просьба, поблагодарите релизера, оцените раздачу и оставьте свои комментарий, если Вы скачали Полицейский с Рублёвки. Полицейская академия через торрент бесплатно!
    Комментировать посты могут только пользователи прошедшие не сложную регистрацию
    Показать сообщения:    

    Полицейский с Рублёвки. Полицейская академия через торрент
    Скачать бесплатно Полицейский с Рублёвки. Полицейская академия
    Полицейский с Рублёвки. Полицейская академия скачать торрент
    Полицейский с Рублёвки. Полицейская академия смотреть онлайн
    Cкачать фильм Полицейский с Рублёвки. Полицейская академия бесплатно
    Полицейский с Рублёвки. Полицейская академия скачать торрент в хорошем качестве
    Полицейский с Рублёвки. Полицейская академия смотреть онлайн бесплатно в хорошем качестве


    Вы не можете начинать темы
    Вы не можете отвечать на сообщения
    Вы не можете редактировать свои сообщения
    Вы не можете удалять свои сообщения
    Вы не можете голосовать в опросах
    Вы не можете прикреплять файлы к сообщениям
    Вы можете скачивать файлы