2 сезон

iTunes

MVO

1

2 сезон

iTunes

iTunes

1 сезон

RePack

30

Ultimate

ВАЖНО

ИГРА 18+

pack

RePack

MK11
pack

Легкие деньги

RePack

jed

RePack

fifa19

RePack

RDR2

RePack

NEED FOR SPEED™ PAYBACK

4 сезон

9 сезон

Бесстыжие 9 сезон

Все сериалы

все сериалы на PB.wtf

RePack

FAR CRY 5

Anonymous, добрый день, мы не успеваем собрать деньги на оплату серверов за декабрь и январь, помогите нам пожалуйста в это трудное время. В качестве благодарности мы отключим Вам всю рекламу на сайте (укажите свой ник в строку Ваше имя)!

×
  
Magnet ссылка

Гоморра / Gomorra: La serie / Сезон 3 / Серии 1-12 из 12 (Стефано Соллима, Клаудио Капеллини, Франческа Коменчини) [2017, драма, криминал, триллер, WEBRip 1080p] [MVO] (HDRezka Studio) pb.wtf

Гоморра через торрент pb.wtf

Размер: 31.7 GB | Добавлен: 1 год 1 мес. назад | Торрент скачан:5 раз
Скачать  

05-12-2019 12:33 Гоморра Скачать торрент  

Гоморра / Gomorra: La serie
Год выпуска: 2017
Страна: Италия, Германия
Жанр: Драма, криминал
Продолжительность: ~ 00:50:00
Перевод: Профессиональный (многоголосый закадровый) *HDRezka Studio*

Режиссёр: Клаудио Капеллини, Стефано Соллима, Франческа Коменчини

В ролях: Марко Д’Амор, Сальваторе Эспозито, Фортунато Серлино, Фабио Де Каро, Christian Giroso, Giovanni Buselli, Кармине Монако, Лино Муселла, Кристина Донадио, Marco Palvetti и другие

Описание:
История о людях и судьбах, связанных с жестокой и могущественной неаполитанской преступной организацией. Рассказ о жизни мафиозного клана изнутри, увиденной глазами 30-летнего Чиро, верного помощника крестного отца Пьетро Савастано.

rating

Качество: WEBRip 1080p
Контейнер: MKV
Видео: MPEG-4 AVC, 1920x1040, ~7 770 kb/s, 25 fps
Аудио: Русский, AC3, 48.0 KHz, 2 channels, 192 Kbps
Субтитры: русские (форсированные)
General
Unique ID : 140582273844571756691255922962790425551 (0x69C3293CD95258BB71FB16F3A56923CF)
Complete name : E:\Gomorra.2017.S03.1080p\Gomorra.S03E01.WEBRip.1080p.rus.2.0.HDREZKA.STUDIO.mkv
Format : Matroska
Format version : Version 4 / Version 2
File size : 2.58 GiB
Duration : 45 min 24 s
Overall bit rate mode : Variable
Overall bit rate : 8 123 kb/s
Encoded date : UTC 2019-04-17 21:25:31
Writing application : mkvmerge v25.0.0 ('Prog Noir') 64-bit
Writing library : libebml v1.3.6 + libmatroska v1.4.9

Video
ID : 1
Format : AVC
Format/Info : Advanced Video Codec
Format profile : High@L4.1
Format settings : CABAC / 1 Ref Frames
Format settings, CABAC : Yes
Format settings, RefFrames : 1 frame
Codec ID : V_MPEG4/ISO/AVC
Duration : 45 min 24 s
Bit rate mode : Variable
Bit rate : 7 770 kb/s
Maximum bit rate : 2 000 kb/s
Width : 1 920 pixels
Height : 1 040 pixels
Display aspect ratio : 1.85:1
Frame rate mode : Constant
Frame rate : 25.000 FPS
Color space : YUV
Chroma subsampling : 4:2:0
Bit depth : 8 bits
Scan type : Progressive
Bits/(Pixel*Frame) : 0.156
Stream size : 2.46 GiB (96%)
Default : Yes
Forced : No

Audio
ID : 2
Format : AC-3
Format/Info : Audio Coding 3
Format settings, Endianness : Big
Codec ID : A_AC3
Duration : 45 min 24 s
Bit rate mode : Constant
Bit rate : 192 kb/s
Channel(s) : 2 channels
Channel positions : Front: L R
Sampling rate : 48.0 kHz
Frame rate : 31.250 FPS (1536 SPF)
Bit depth : 16 bits
Compression mode : Lossy
Stream size : 62.4 MiB (2%)
Language : Russian
Service kind : Complete Main
Default : Yes
Forced : No
скриншот  скриншот  скриншот  
pb.wtf



Скачать Гоморра через торрент https://i111.fastpic.ru/big/2019/1205/2c/43cee3fa814bd82aeb8d1f5d06a1b92c.png Скачать фильм Гоморра через торрент бесплантно в хорошем качестве Описание:История о людях и судьбах, связанных с жестокой и могущественной неаполитанской преступной организацией. Рассказ о жизни ... 10 10 2
Торрент: Зарегистрирован [2019-12-05 12:33] · скачан: 5 раз
Статус: √ проверено
Размер: 31.7 GB
Как cкачать? Как скачать Гоморра через торрент | UTorrent

% Раздел Тема Автор DL S | L
Зарубежные сериалы [ 7.13 GB ] Гоморра / Gomorra: La serie / Сезон 3 / Серии 1-12 из 12 [2017 WEBRip] [MVO] killermax2013 Скачать
1 | 0
Зарубежные сериалы [ 25.32 GB ] Гоморра / Gomorra: La serie / Сезон 3 / Серии 1-12 из 12 [2017 HDTVRip 1080p] [MVO] killermax2013 Скачать
1 | 0
Зарубежные сериалы [ 23.67 GB ] Гоморра / Gomorra: La serie / Сезон 3 / Серии 1-12 из 12 [2017 HDTV 1080p] DVO [ViruseProject] bober100 Скачать
1 | 0

28-11-2019 20:33  

Отключить всю рекламу на сайте

    Дорогой пользователь! Огромная просьба, поблагодарите релизера, оцените раздачу и оставьте свои комментарий, если Вы скачали Гоморра через торрент бесплатно! Внесите свою лепту в развитие PiratBit!
    Комментировать посты могут только пользователи прошедшие не сложную регистрацию
    Показать сообщения:    

    Гоморра через торрент
    Скачать бесплатно Гоморра
    Гоморра скачать торрент
    Гоморра смотреть онлайн
    Cкачать фильм Гоморра бесплатно
    Гоморра скачать торрент в хорошем качестве
    Гоморра смотреть онлайн бесплатно в хорошем качестве


    Вы не можете начинать темы
    Вы не можете отвечать на сообщения
    Вы не можете редактировать свои сообщения
    Вы не можете удалять свои сообщения
    Вы не можете голосовать в опросах
    Вы не можете прикреплять файлы к сообщениям
    Вы можете скачивать файлы