2 сезон

iTunes

MVO

1

2 сезон

iTunes

iTunes

1 сезон

RePack

30

Новинка

ВАЖНО

ИГРА 18+

pack

RePack

MK11
pack

Легкие деньги

RePack

jed

RePack

fifa19

RePack

RDR2

RePack

NEED FOR SPEED™ PAYBACK

4 сезон

9 сезон

Бесстыжие 9 сезон

Все сериалы

все сериалы на PB.wtf

RePack

FAR CRY 5

Anonymous, добрый день, мы не успеваем собрать деньги на оплату серверов за декабрь и январь, помогите нам пожалуйста в это трудное время. В качестве благодарности мы отключим Вам всю рекламу на сайте (укажите свой ник в строку Ваше имя)!

×
  
Magnet ссылка

Гоморра / Gomorra: La serie / Сезон 3 / Серии 1-12 из 12 (Стефано Соллима, Клаудио Капеллини, Франческа Коменчини) [2017, драма, криминал, триллер, WEBRip] [MVO] (HDRezka Studio) pb.wtf

Гоморра через торрент pb.wtf

Размер: 7.13 GB | Добавлен: 1 год 1 мес. назад | Торрент скачан:6 раз
Скачать  

05-12-2019 14:03 Гоморра Скачать торрент  

Гоморра / Gomorra: La serie
Год выпуска: 2017
Страна: Италия, Германия
Жанр: Драма, криминал
Продолжительность: ~ 00:50:00
Перевод: Профессиональный (многоголосый закадровый) *HDRezka Studio*

Режиссёр: Клаудио Капеллини, Стефано Соллима, Франческа Коменчини

В ролях: Марко Д’Амор, Сальваторе Эспозито, Фортунато Серлино, Фабио Де Каро, Christian Giroso, Giovanni Buselli, Кармине Монако, Лино Муселла, Кристина Донадио, Marco Palvetti и другие

Описание:
История о людях и судьбах, связанных с жестокой и могущественной неаполитанской преступной организацией. Рассказ о жизни мафиозного клана изнутри, увиденной глазами 30-летнего Чиро, верного помощника крестного отца Пьетро Савастано.

rating

Качество: WEBRip
Контейнер: AVI
Видео: 720x404 (1.78:1), 25 fps, DivX Codec 4.x ~ 1 493 kbps avg, 0.205 bit/pixel
Аудио: 48 kHz, AC3 Dolby Digital, 2/0 (L,R) ch, ~192 kbps
Субтитры: русские (форсированные)
General
Complete name : E:\Gomorra.2017.S03.SD\Gomorra.S03E01.WEBRip.400p.rus.2.0.HDREZKA.STUDIO.avi
Format : AVI
Format/Info : Audio Video Interleave
File size : 573 MiB
Duration : 45 min 24 s
Overall bit rate : 1 763 kb/s
Writing application : Lavf58.33.100

Video
ID : 0
Format : MPEG-4 Visual
Format profile : Simple@L3
Format settings, BVOP : No
Format settings, QPel : No
Format settings, GMC : No warppoints
Format settings, Matrix : Default (H.263)
Codec ID : divx
Codec ID/Info : Mainly used by Google
Codec ID/Hint : DivX
Duration : 45 min 24 s
Bit rate : 1 493 kb/s
Width : 720 pixels
Height : 404 pixels
Display aspect ratio : 1.85:1
Frame rate : 25.000 FPS
Color space : YUV
Chroma subsampling : 4:2:0
Bit depth : 8 bits
Scan type : Progressive
Compression mode : Lossy
Bits/(Pixel*Frame) : 0.205
Stream size : 485 MiB (85%)
Writing library : XviD 67

Audio
ID : 1
Format : AC-3
Format/Info : Audio Coding 3
Format settings, Endianness : Big
Codec ID : 2000
Duration : 45 min 24 s
Bit rate mode : Constant
Bit rate : 192 kb/s
Channel(s) : 2 channels
Channel positions : Front: L R
Sampling rate : 48.0 kHz
Frame rate : 31.250 FPS (1536 SPF)
Bit depth : 16 bits
Compression mode : Lossy
Stream size : 62.4 MiB (11%)
Alignment : Aligned on interleaves
Service kind : Complete Main
скриншот   скриншот   скриншот  
pb.wtf



Скачать Гоморра через торрент https://i111.fastpic.ru/big/2019/1205/2c/43cee3fa814bd82aeb8d1f5d06a1b92c.png Скачать фильм Гоморра через торрент бесплантно в хорошем качестве Описание:История о людях и судьбах, связанных с жестокой и могущественной неаполитанской преступной организацией. Рассказ о жизни ... 10 10 1
Торрент: Зарегистрирован [2019-12-05 14:03] · скачан: 6 раз
Статус: √ проверено
Размер: 7.13 GB
Как cкачать? Как скачать Гоморра через торрент | UTorrent

% Раздел Тема Автор DL S | L
Зарубежные сериалы [ 31.7 GB ] Гоморра / Gomorra: La serie / Сезон 3 / Серии 1-12 из 12 [2017 WEBRip 1080p] [MVO] killermax2013 Скачать
1 | 0
Зарубежные сериалы [ 25.32 GB ] Гоморра / Gomorra: La serie / Сезон 3 / Серии 1-12 из 12 [2017 HDTVRip 1080p] [MVO] killermax2013 Скачать
1 | 0
Зарубежные сериалы [ 23.67 GB ] Гоморра / Gomorra: La serie / Сезон 3 / Серии 1-12 из 12 [2017 HDTV 1080p] DVO [ViruseProject] bober100 Скачать
1 | 0

28-11-2019 20:33  

Отключить всю рекламу на сайте

    Дорогой пользователь! Огромная просьба, поблагодарите релизера, оцените раздачу и оставьте свои комментарий, если Вы скачали Гоморра через торрент бесплатно! Внесите свою лепту в развитие PiratBit!
    Комментировать посты могут только пользователи прошедшие не сложную регистрацию
    Показать сообщения:    

    Гоморра через торрент
    Скачать бесплатно Гоморра
    Гоморра скачать торрент
    Гоморра смотреть онлайн
    Cкачать фильм Гоморра бесплатно
    Гоморра скачать торрент в хорошем качестве
    Гоморра смотреть онлайн бесплатно в хорошем качестве


    Вы не можете начинать темы
    Вы не можете отвечать на сообщения
    Вы не можете редактировать свои сообщения
    Вы не можете удалять свои сообщения
    Вы не можете голосовать в опросах
    Вы не можете прикреплять файлы к сообщениям
    Вы можете скачивать файлы