Ссылка на приватное зеркало всего за 1$. Внимание количество ограничено!!!

OK

1+1

iTunes

мы

OK

1

WEB-DLRip

Джокер

Пифагор

Ведьмак / The Witcher сериал

Лицензия

ПШазам

ОК

Оно 2

iTunes

30
pack

Вам бонус

ВАЖНО

!!Акция!!

Alien_RageХит недели

RePack

Resident Evil 21

ИГРА 18+

pack

RePack

jed

!!Акция!!

Alien_Rage

RePack

fifa19

RePack

Assassins Creed: Odyssey

RePack

NEED FOR SPEED™ PAYBACK

4 сезон

9 сезон

Бесстыжие 9 сезон

Все сериалы

все сериалы на PB.wtf

RePack

FAR CRY 5
  

Сокровища похоти 1 / Lust Treasures 1 (Private) [2002 г., Compilation, Anal, DP, Orgy, All Sex, DVDRip, VO] - SP Company pb.wtf

Сокровища похоти 1 через торрент pb.wtf

Раздают: 10 [ 0 KB/s ]
Размер: 1.82 GB | Добавлен: 1 мес. 12 д. назад | Торрент скачан:254 раза
Скачать  

05-12-2019 14:36 Сокровища похоти 1 Скачать торрент  

Сокровища похоти 1 / Lust Treasures 1Год выпуска: 2002
Страна: Швеция
Жанр: Compilation, Anal, DP, Orgy, All Sex
Продолжительность: 02:16:37
Перевод: любительский одноголосый (SP Company)
Субтитры: отсутствуют

rating

Режиссер: студия Private Media Group
В ролях: Draghixa, Kathy Kash, Zana Sun, Vanessa Chase, Kai Nobel, Brittania, Lana Cox, Kay, Stefania Sartori, Regina Sipos, Gina, Lisa, Nana, Alberto Rey, David Perry, Jean Yves LeCastel, Richard Langin, Frank Gun, Joey Verducci, Sean Michaels, Kyle Stone, Sandor, Eric Weiss

Описание: Private Lust Treasures 1 shows you some of the hottest women from the legendary series Private Video Magazine. An accurate selection of the best scenes and a high quality digital transfer, will let you enjoy more than 2 hours of steamy sex appearing in DVD for the first time.
Великолепные и жаркие сцены горячего секса в первой части порнофильма Сокровища Похоти. Насладитесь этим детищем для взрослой аудитории от одной из самых популярных студий, которая отобрала самых горячих женщин для вашего удовольствия.

Качество: DVDRip
Формат: AVI
Видео кодек: DivX
Аудио кодек: AC3
Видео: 640x480 (4:3), 29.97 fps ~ 1700 Kbps
Аудио: AC3, 48 KHz, 2 ch ~ 192 Kb/s
скриншот   скриншот   скриншот   скриншот   скриншот   скриншот  

Общее
Полное имя : G:\wot\Private Lust Treasures 1.avi
Формат : AVI
Формат/Информация : Audio Video Interleave
Размер файла : 1,82 Гбайт
Продолжительность : 2 ч. 16 м.
Общий поток : 1904 Кбит/сек
Программа кодирования : VirtualDubMod 1.5.10.2 (build 2542/release)
Библиотека кодирования : VirtualDubMod build 2542/release

Видео
Идентификатор : 0
Формат : MPEG-4 Visual
Профиль формата : Simple@L1
Параметр BVOP формата : Нет
Параметр QPel формата : Нет
Параметр GMC формата : Без точки перехода
Параметр матрицы формата : Default (H.263)
Идентификатор кодека : DX50
Идентификатор кодека/Подсказка : DivX 5
Продолжительность : 2 ч. 16 м.
Битрейт : 1700 Кбит/сек
Ширина : 640 пикселей
Высота : 480 пикселей
Соотношение сторон : 4:3
Частота кадров : 29,970 кадров/сек
Цветовое пространство : YUV
Субдискретизация насыщенности : 4:2:0
Битовая глубина : 8 бит
Тип развёртки : Прогрессивная
Метод сжатия : С потерями
Бит/(Пиксели*Кадры) : 0.185
Размер потока : 1,62 Гбайт (89%)
Библиотека кодирования : Lavc51.40.4

Аудио
Идентификатор : 1
Формат : AC-3
Формат/Информация : Audio Coding 3
Расширение режима : CM (complete main)
Идентификатор кодека : 2000
Продолжительность : 2 ч. 16 м.
Вид битрейта : Постоянный
Битрейт : 192 Кбит/сек
Каналы : 2 канала
Расположение каналов : Front: L R
Частота : 48,0 КГц
Битовая глубина : 16 бит
Метод сжатия : С потерями
Размер потока : 188 Мбайт (10%)
Выравнивание : Разделение по промежуткам
Продолжительность промежутка : 33 мс. (1,00 видеокадр)
Время предзагрузки промежутка : 500 мс.

pb.wtf



pack Скачать Сокровища похоти 1 через торрент http://pic1.kartinco.top/images/12/s9w4n.jpg Скачать фильм Сокровища похоти 1 через торрент бесплантно в хорошем качестве Описание: Private Lust Treasures 1 shows you some of the hottest women from the legendary series Private Video Magazine. An accurate ... 9.1 10 9
Info! Золотая раздача, скачанное не засчитывается.
Торрент: Зарегистрирован [2019-12-05 14:36] · скачан: 254 раз
Статус: √ проверено
Размер: 1.82 GB
Как cкачать? Как скачать Сокровища похоти 1 через торрент | qTorrent

28-11-2019 20:33  

Отключить всю рекламу на сайте

05-12-2019 14:41 Сокровища похоти 1 Скачать торрент  

Топик был перенесен из форума Полнометражные порно фильмы в форум Порно фильмы с сюжетом


Леонид Ильичpb.wtf



pack
    Дорогой пользователь! Огромная просьба, поблагодарите релизера, оцените раздачу и оставьте свои комментарий, если Вы скачали Сокровища похоти 1 через торрент бесплатно! Внесите свою лепту в развитие PiratBit!
    Комментировать посты могут только пользователи прошедшие не сложную регистрацию
    Показать сообщения:    

    Сокровища похоти 1 через торрент
    Скачать бесплатно Сокровища похоти 1
    Сокровища похоти 1 скачать торрент
    Сокровища похоти 1 смотреть онлайн
    Cкачать фильм Сокровища похоти 1 бесплатно
    Сокровища похоти 1 скачать торрент в хорошем качестве
    Сокровища похоти 1 смотреть онлайн бесплатно в хорошем качестве


    Вы не можете начинать темы
    Вы не можете отвечать на сообщения
    Вы не можете редактировать свои сообщения
    Вы не можете удалять свои сообщения
    Вы не можете голосовать в опросах
    Вы не можете прикреплять файлы к сообщениям
    Вы можете скачивать файлы