Ссылка на приватное зеркало нашего сайта всего за 1$. Внимание количество ограничено!!!

2 сезон

iTunes

1 сезон

1

2 сезон

2 сезон

iTunes

1 сезон

RePack

30

Ultimate

ВАЖНО

ИГРА 18+

pack

RePack

MK11
pack

Забери бонус

RePack

jed

!!Акция!!

Alien_Rage

RePack

fifa19

RePack

Assassins Creed: Odyssey

RePack

NEED FOR SPEED™ PAYBACK

4 сезон

9 сезон

Бесстыжие 9 сезон

Все сериалы

все сериалы на PB.wtf

RePack

FAR CRY 5
  

Рождественский принц: Королевский ребёнок / A Christmas Prince: The Royal Baby (Джон Шульц) [2019, мелодрама, комедия, WEB-DL 1080p] [Dub] (Пифагор) pb.wtf

Рождественский принц: Королевский ребёнок через торрент pb.wtf

Размер: 3.9 GB | Добавлен: 11 мес. назад | Торрент скачан:64 раза
Скачать  

05-12-2019 15:01 Рождественский принц: Королевский ребёнок Скачать торрент  

Рождественский принц: Королевский ребёнок / A Christmas Prince: The Royal Baby

Год выпуска: 2019
Страна: США
Жанр: Мелодрама, комедия
Продолжительность: 01:25:27

Перевод: Профессиональный (дублированный) Пифагор
Субтитры: Русские (Forced; Full), английские (SDH)

Режиссер: Джон Шульц / John Schultz

В ролях: Роуз МакАйвер, Бен Лэмб, Сара Дуглас, Тео Девани, Ричард Эштон, Джоэль МакВиг, Тахира Шариф, Кристал Ю, Диана Владу, Кевин Шен

Описание: В Альдовии Рождество, и королевский ребенок скоро родится. Эмбер и Ричард принимают королевских особ из далекого королевства, чтобы возобновить священное перемирие, но когда договор исчезает, мир подвергается опасности, и древнее проклятие угрожает их семье.

rating

Сэмпл

Тип релиза: WEB-DL 1080p (Netflix)
Контейнер: MKV
Видео: AVC, 1920x1080 (16:9), 23.976 fps, ~ 5360 Kbps
Аудио 1: E-AC3, 48 KHz, 6 ch, 640 kbps (Дубляж)
Аудио 2: E-AC3 + Atmos, 48 KHz, 6 ch, 768 kbps (Original)
Формат субтитров: softsub (SRT)
Спасибо:
Общее
Уникальный идентификатор : 228920485084179417573150364688373102990 (0xAC387B5164EBC407B356246F6DB1B98E)
Полное имя : E:\RELEASE\A.Christmas.Prince.The.Royal.Baby.2019.1080p.WEB-DL.DUB.EniaHD.mkv
Формат : Matroska
Версия формата : Version 4
Размер файла : 3,90 Гбайт
Продолжительность : 1 ч. 25 м.
Режим общего битрейта : Переменный
Общий поток : 6536 Кбит/сек
Название фильма : Рождественский принц: Королевский ребёнок
Дата кодирования : UTC 2019-12-05 14:34:32
Программа кодирования : mkvmerge v40.0.0 ('Old Town Road + Pony') 64-bit
Библиотека кодирования : libebml v1.3.9 + libmatroska v1.5.2
Обложка : Yes
Attachments : cover.jpg

Видео
Идентификатор : 1
Формат : AVC
Формат/Информация : Advanced Video Codec
Профиль формата : Main@L4
Настройки формата : CABAC / 3 Ref Frames
Параметр CABAC формата : Да
Параметр RefFrames формата : 3 кадра
Идентификатор кодека : V_MPEG4/ISO/AVC
Продолжительность : 1 ч. 25 м.
Вид битрейта : Переменный
Битрейт : 5360 Кбит/сек
Максимальный битрейт : 8040 Кбит/сек
Ширина : 1920 пикселей
Высота : 1080 пикселей
Соотношение сторон : 16:9
Режим частоты кадров : Постоянный
Частота кадров : 23,976 (24000/1001) кадра/сек
Цветовое пространство : YUV
Субдискретизация насыщенности : 4:2:0
Битовая глубина : 8 бит
Тип развёртки : Прогрессивная
Бит/(Пиксели*Кадры) : 0.108
Размер потока : 3,06 Гбайт (78%)
Заголовок : A.Christmas.Prince.The.Royal.Baby.2019.1080p.WEB-DL.DUB.EniaHD
Библиотека кодирования : x264 core 148 r2715 7e75228
Настройки программы : cabac=1 / ref=3 / deblock=1:0:0 / analyse=0x1:0x111 / me=umh / subme=10 / psy=1 / psy_rd=1.00:0.00 / mixed_ref=1 / me_range=24 / chroma_me=1 / trellis=2 / 8x8dct=0 / cqm=0 / deadzone=21,11 / fast_pskip=1 / chroma_qp_offset=-2 / threads=8 / lookahead_threads=1 / sliced_threads=0 / nr=0 / decimate=1 / interlaced=0 / bluray_compat=0 / stitchable=1 / constrained_intra=0 / bframes=2 / b_pyramid=0 / b_adapt=2 / b_bias=0 / direct=3 / weightb=1 / open_gop=0 / weightp=2 / keyint=250 / keyint_min=23 / scenecut=0 / intra_refresh=0 / rc_lookahead=48 / rc=2pass / mbtree=1 / bitrate=5360 / ratetol=1.0 / qcomp=0.50 / qpmin=6 / qpmax=51 / qpstep=4 / cplxblur=20.0 / qblur=0.5 / vbv_maxrate=8040 / vbv_bufsize=10720 / nal_hrd=vbr / filler=0 / ip_ratio=1.40 / aq=1:1.00
Язык : English
Default : Да
Forced : Нет

Аудио #1
Идентификатор : 2
Формат : E-AC-3
Формат/Информация : Enhanced AC-3
Коммерческое название : Dolby Digital Plus
Идентификатор кодека : A_EAC3
Продолжительность : 1 ч. 25 м.
Вид битрейта : Постоянный
Битрейт : 640 Кбит/сек
Каналы : 6 каналов
ChannelLayout : L R C LFE Ls Rs
Частота : 48,0 КГц
Частота кадров : 31,250 кадров/сек (1536 SPF)
Метод сжатия : С потерями
Размер потока : 391 Мбайт (10%)
Заголовок : E-AC3 5.1 @ 640 kbps - DUB, Пифагор
Язык : Russian
ServiceKind/String : Complete Main
Default : Да
Forced : Нет

Аудио #2
Идентификатор : 3
Формат : E-AC-3 JOC
Формат/Информация : Enhanced AC-3 with Joint Object Coding
Коммерческое название : Dolby Digital Plus with Dolby Atmos
Идентификатор кодека : A_EAC3
Продолжительность : 1 ч. 25 м.
Вид битрейта : Постоянный
Битрейт : 768 Кбит/сек
Каналы : 6 каналов
ChannelLayout : L R C LFE Ls Rs
Частота : 48,0 КГц
Частота кадров : 31,250 кадров/сек (1536 SPF)
Метод сжатия : С потерями
Размер потока : 469 Мбайт (12%)
Заголовок : E-AC3 + Atmos 5.1 @ 768 kbps - Original
Язык : English
ServiceKind/String : Complete Main
Default : Нет
Forced : Нет
ComplexityIndex : 16
NumberOfDynamicObjects : 15
BedChannelCount/String : 1 канал
BedChannelConfiguration : LFE

Текст #1
Идентификатор : 4
Формат : UTF-8
Идентификатор кодека : S_TEXT/UTF8
Идентификатор кодека/Информация : UTF-8 Plain Text
Продолжительность : 1 ч. 24 м.
Битрейт : 1 бит/сек
ElementCount : 25
Размер потока : 851 байт (0%)
Заголовок : Forced
Язык : Russian
Default : Да
Forced : Да

Текст #2
Идентификатор : 5
Формат : UTF-8
Идентификатор кодека : S_TEXT/UTF8
Идентификатор кодека/Информация : UTF-8 Plain Text
Продолжительность : 1 ч. 24 м.
Битрейт : 106 бит/сек
ElementCount : 1381
Размер потока : 65,4 Кбайт (0%)
Заголовок : Full
Язык : Russian
Default : Нет
Forced : Нет

Текст #3
Идентификатор : 6
Формат : UTF-8
Идентификатор кодека : S_TEXT/UTF8
Идентификатор кодека/Информация : UTF-8 Plain Text
Продолжительность : 1 ч. 21 м.
Битрейт : 92 бит/сек
ElementCount : 1733
Размер потока : 55,3 Кбайт (0%)
Заголовок : Full SDH
Язык : English
Default : Нет
Forced : Нет
скриншот  скриншот  скриншот  
pb.wtf



Скачать Рождественский принц: Королевский ребёнок через торрент https://funkyimg.com/i/2ZgCm.jpg Скачать фильм Рождественский принц: Королевский ребёнок через торрент бесплантно в хорошем качестве Описание: В Альдовии Рождество, и королевский ребенок скоро родится. Эмбер и Ричард принимают королевских особ из далекого королевства, ... 10 10 4
Торрент: Зарегистрирован [2019-12-05 15:01] · скачан: 64 раз
Статус: √ проверено
Размер: 3.9 GB
Как cкачать? Как скачать Рождественский принц: Королевский ребёнок через торрент | qTorrent

28-11-2019 20:33  

Отключить всю рекламу на сайте

    Дорогой пользователь! Огромная просьба, поблагодарите релизера, оцените раздачу и оставьте свои комментарий, если Вы скачали Рождественский принц: Королевский ребёнок через торрент бесплатно! Внесите свою лепту в развитие PiratBit!
    Комментировать посты могут только пользователи прошедшие не сложную регистрацию
    Показать сообщения:    

    Рождественский принц: Королевский ребёнок через торрент
    Скачать бесплатно Рождественский принц: Королевский ребёнок
    Рождественский принц: Королевский ребёнок скачать торрент
    Рождественский принц: Королевский ребёнок смотреть онлайн
    Cкачать фильм Рождественский принц: Королевский ребёнок бесплатно
    Рождественский принц: Королевский ребёнок скачать торрент в хорошем качестве
    Рождественский принц: Королевский ребёнок смотреть онлайн бесплатно в хорошем качестве


    Вы не можете начинать темы
    Вы не можете отвечать на сообщения
    Вы не можете редактировать свои сообщения
    Вы не можете удалять свои сообщения
    Вы не можете голосовать в опросах
    Вы не можете прикреплять файлы к сообщениям
    Вы можете скачивать файлы