Ссылка на приватное зеркало всего за 1$. Внимание количество ограничено!!!

OK

1+1

iTunes

мы

OK

1

WEB-DLRip

Джокер

Пифагор

Ведьмак / The Witcher сериал

iTunes

ПШазам

ОК

Оно 2

iTunes

30
pack

Вам бонус

ВАЖНО

!!Акция!!

Alien_RageХит недели

RePack

Resident Evil 21

ИГРА 18+

pack

RePack

jed

RePack

fifa19

RePack

Assassins Creed: Odyssey

RePack

NEED FOR SPEED™ PAYBACK

4 сезон

9 сезон

Бесстыжие 9 сезон

Все сериалы

все сериалы на PB.wtf

RePack

FAR CRY 5
  

Дом с прислугой / Servant / Сезон: 1 / Серии: 1-9 из 10 (М. Найт Шьямалан, Лиза Брюльманн) [2019, ужасы, триллер, драма, WEB-DL 720p] [DVO] (Кубик в Кубе) pb.wtf

Дом с прислугой через торрент pb.wtf

Размер: 8.4 GB | Добавлен: 11 д. назад | Торрент скачан:7 раз
Скачать  

05-12-2019 20:00 Дом с прислугой Скачать торрент  

Дом с прислугой / Servant
Год выпуска: 2019
Страна: США
Жанр: ужасы, триллер, драма
Продолжительность: ~ 00:35:00
Перевод: Профессиональный (двухголосый) *Кубик в Кубе*

Режиссер: М. Найт Шьямалан, Лиза Брюльманн

В ролях: Лорен Эмброуз, Тоби Кеббелл, Нелл Тайгер Фри, Руперт Гринт, Филлип Джеймс Браннон, С.Дж. Сын, Джеффри Моуэри, Родни Джонс, Сара Бирманн, Рональд Мелтон Брэкстон

Описание: У супругов Тёрнер случилась беда - они потеряли трёхмесячного малыша. Дороти никак не может оправиться от трагедии, поэтому продолжает нянчить куклу и даже нанимает для этих целей няню, девушку Лиенн. А та, как будто, не замечает странностей и обращается с куклой как с настоящим младенцем.

rating

Релиз -- CasStudio
Работа со звуком: Messafan

Качество: WEB-DL 720p
Формат: MKV
Видео: 1356х678, 23.976 fps, MPEG-4 AVC ~2900 kbps avg
Аудио Rus: 48 kHz, AC3 Dolby Digital, 3/2 (L,C,R,l,r) + LFE ch, ~640.00 kbps
Аудио Eng: 48 kHz, AC3 Dolby Digital, 3/2 (L,C,R,l,r) + LFE ch, ~640.00 kbps
Субтитры: English
скриншот   скриншот   скриншот  

General
Unique ID : 172871145005631736109518425629228214837 (0x820DC57EF8C5BAF4B6673317E12F2A35)
Complete name : E:\Servant.S01.720p.WEBDL.KvK.CasStudio.TK\Servant.S01E01.Reborn.720p.WEBDL.KvK.CasStudio.TK.mkv
Format : Matroska
Format version : Version 4 / Version 2
File size : 1.01 GiB
Duration : 34 min 58 s
Overall bit rate : 4 150 kb/s
Movie name : Servant 01x01 (Reborn) - release by messafan for CasStudio.TK
Encoded date : UTC 2019-12-05 16:41:18
Writing application : mkvmerge v6.7.0 ('Back to the Ground') 64bit built on Jan 8 2014 15:10:52
Writing library : libebml v1.3.0 + libmatroska v1.4.1

Video
ID : 1
Format : AVC
Format/Info : Advanced Video Codec
Format profile : High@L3.2
Format settings : CABAC / 5 Ref Frames
Format settings, CABAC : Yes
Format settings, RefFrames : 5 frames
Codec ID : V_MPEG4/ISO/AVC
Duration : 34 min 58 s
Bit rate : 2 787 kb/s
Width : 1 356 pixels
Height : 678 pixels
Display aspect ratio : 2.000
Frame rate mode : Constant
Frame rate : 23.976 (24000/1001) FPS
Color space : YUV
Chroma subsampling : 4:2:0
Bit depth : 8 bits
Scan type : Progressive
Bits/(Pixel*Frame) : 0.126
Stream size : 697 MiB (67%)
Language : English
Default : Yes
Forced : No
Color range : Limited
Color primaries : BT.709
Transfer characteristics : BT.709
Matrix coefficients : BT.709

Audio #1
ID : 2
Format : AC-3
Format/Info : Audio Coding 3
Format settings, Endianness : Big
Codec ID : A_AC3
Duration : 34 min 58 s
Bit rate mode : Constant
Bit rate : 640 kb/s
Channel(s) : 6 channels
Channel positions : Front: L C R, Side: L R, LFE
Sampling rate : 48.0 kHz
Frame rate : 31.250 FPS (1536 SPF)
Bit depth : 16 bits
Compression mode : Lossy
Stream size : 160 MiB (15%)
Title : KvK DD5.1 @ 640kbps
Language : Russian
Service kind : Complete Main
Default : Yes
Forced : No

Audio #2
ID : 3
Format : AC-3
Format/Info : Audio Coding 3
Format settings, Endianness : Big
Codec ID : A_AC3
Duration : 34 min 58 s
Bit rate mode : Constant
Bit rate : 640 kb/s
Channel(s) : 6 channels
Channel positions : Front: L C R, Side: L R, LFE
Sampling rate : 48.0 kHz
Frame rate : 31.250 FPS (1536 SPF)
Bit depth : 16 bits
Compression mode : Lossy
Stream size : 160 MiB (15%)
Title : English DD5.1 @ 640kbps
Language : English
Service kind : Complete Main
Default : No
Forced : No

Text #1
ID : 4
Format : UTF-8
Codec ID : S_TEXT/UTF8
Codec ID/Info : UTF-8 Plain Text
Title : Eng sub
Language : English
Default : No
Forced : No

Text #2
ID : 5
Format : UTF-8
Codec ID : S_TEXT/UTF8
Codec ID/Info : UTF-8 Plain Text
Title : English (SDH)
Language : English
Default : No
Forced : No

Внимание! Раздача ведётся путём добавления новых серий; при каждом добавлении создаётся новый торрент. Чтобы начать докачку новой серии, пользователям необходимо сделать следующее:
(1) остановить скачивание,
(2) удалить старый торрент у себя из клиента (старые серии удалять не надо),
(3) скачать новый торрент и запустить его у себя в клиенте вместо старого, при этом указать клиенту путь в старую папку куда и должно происходить скачивание новых серий.

Ваш клиент при этом должен произвести хеширование (проверку) старой папки (если не производит сам - помогите ему сделать это), и будет докачивать только те серии которых у вас ещё нет. Старые серии при этом не удаляются, а продолжают раздаваться!

Eсли вы уже удалили старые серии, то предотвратить повторную закачку старых серий можно, отжав галочку в соответсвующих местах при запуске нового торрента. По возможности, желательно не удалять старые серии как можно дольше чтобы релизёр не столько продолжал раздавать старые серии, а смог сконцентрироваться на новых.
pb.wtf



Скачать Дом с прислугой через торрент https://i111.fastpic.ru/big/2020/0105/3a/6d6a68f12cf32eda7b70b565d3542d3a.png Скачать фильм Дом с прислугой через торрент бесплантно в хорошем качестве Описание: У супругов Тёрнер случилась беда - они потеряли трёхмесячного малыша. Дороти никак не может оправиться от трагедии, поэтому ... 10 10 5
Торрент: Зарегистрирован [2020-01-16 16:02] · скачан: 7 раз
Статус: √ проверено
Размер: 8.4 GB
Как cкачать? Как скачать Дом с прислугой через торрент | qTorrent

% Раздел Тема Автор DL S | L
Зарубежные сериалы [ 5.38 GB ] Дом с прислугой / Servant / Сезон: 1 / Серии: 1-9 из 10 [2019 WEB-DLRip] [DVO] killermax2013 Скачать
1 | 0

28-11-2019 20:33  

Отключить всю рекламу на сайте

    Дорогой пользователь! Огромная просьба, поблагодарите релизера, оцените раздачу и оставьте свои комментарий, если Вы скачали Дом с прислугой через торрент бесплатно! Внесите свою лепту в развитие PiratBit!
    Комментировать посты могут только пользователи прошедшие не сложную регистрацию
    Показать сообщения:    

    Дом с прислугой через торрент
    Скачать бесплатно Дом с прислугой
    Дом с прислугой скачать торрент
    Дом с прислугой смотреть онлайн
    Cкачать фильм Дом с прислугой бесплатно
    Дом с прислугой скачать торрент в хорошем качестве
    Дом с прислугой смотреть онлайн бесплатно в хорошем качестве


    Вы не можете начинать темы
    Вы не можете отвечать на сообщения
    Вы не можете редактировать свои сообщения
    Вы не можете удалять свои сообщения
    Вы не можете голосовать в опросах
    Вы не можете прикреплять файлы к сообщениям
    Вы можете скачивать файлы