Ссылка на приватное зеркало всего за 1$. Внимание количество ограничено!!!

OK

1+1

iTunes

мы

OK

1

WEB-DLRip

Джокер

Пифагор

Ведьмак / The Witcher сериал

Лицензия

ПШазам

ОК

Оно 2

iTunes

30
pack

Вам бонус

ВАЖНО

!!Акция!!

Alien_RageХит недели

RePack

Resident Evil 21

ИГРА 18+

pack

RePack

jed

RePack

fifa19

RePack

Assassins Creed: Odyssey

RePack

NEED FOR SPEED™ PAYBACK

4 сезон

9 сезон

Бесстыжие 9 сезон

Все сериалы

все сериалы на PB.wtf

RePack

FAR CRY 5
  

Эверест / Abominable (Джилл Калтон, Тодд Вилдерман) [2019, Мультфильм, фэнтези, комедия, приключения, семейный, BDRip 1080p] DUB (rus, ukr) [iTunes] pb.wtf

Эверест через торрент pb.wtf

Раздают: 5 [ 156 KB/s ]
Размер: 10.73 GB | Добавлен: 1 мес. 14 д. назад | Торрент скачан:124 раза
Скачать  

05-12-2019 21:02 Эверест Скачать торрент  

Эверест / Abominable
Год выпуска: 2019
Страна: Китай, США
Студия: DreamWorks Animation, Pearl Studio
Жанр: Мультфильм, фэнтези, комедия, приключения, семейный
Продолжительность: 01:37:13
Перевод: Дублированный | iTunes
Субтитры: Русские (Forced, full), английские (full), немецкие (full), французские (full)

Режиссер: Джилл Калтон, Тодд Вилдерман

rating

В ролях: Хлоя Беннет, Альберт Цай, Тензинг Норгай Трэйнор, Джозеф Иццо, Эдди Иззард, Сара Полсон, Цай Чинь, Мишель Вонг, Рич Дитль, Джеймс Хонг

Описание: Путешествие на самую высокую точку мира? Что может быть круче! Так решает Лу, когда случайно находит огромное, но очень милое чудовище посреди шумного мегаполиса. Пусть их преследуют ученые из сверхсекретной лаборатории, зато её новый друг умеет смешить и творить чудеса. Лу уверена, что поможет дружелюбному йети вернуться домой - на Эверест.

Качество: BDRip 1080p
Формат: MKV

Видео: MPEG-4 AVC, 1920x1040, 14.6 Mbit/s, 23.976 fps
Аудио #01: 48 kHz, AC3, 5.1, 384 Kbps | iTunes | RUS |
Аудио #02: 48 kHz, AC3, 2.0, 192 Kbps | iTunes | UKR |
Аудио #03: 48 kHz, AC3, 5.1, 640 Kbps | Оригинал | ENG |
скриншот  скриншот  скриншот  скриншот  скриншот  

General
Уникальный идентификатор : 303833188108709439736469386224417702897 (0xE49424BCEC058EF73AA6BA6C89C103F1)
Полное имя : Abominable_2019_zh.mkv
Формат : Matroska
Версия формата : Version 4
Размер файла : 10,7 Гбайт
Продолжительность : 1 ч. 37 м.
Общий поток : 15,8 Мбит/сек
Название фильма : Abominable_2019_zh
Дата кодирования : UTC 2019-12-09 09:10:57
Программа кодирования : mkvmerge v35.0.0 ('All The Love In The World') 32-bit
Библиотека кодирования : libebml v1.3.9 + libmatroska v1.5.2

Видео
Идентификатор : 1
Формат : AVC
Формат/Информация : Advanced Video Codec
Профиль формата : High@L4.1
Настройки формата : CABAC / 4 Ref Frames
Параметр CABAC формата : Да
Параметр RefFrames формата : 4 кадра
Идентификатор кодека : V_MPEG4/ISO/AVC
Продолжительность : 1 ч. 37 м.
Битрейт : 14,6 Мбит/сек
Ширина : 1920 пикселей
Высота : 1040 пикселей
Соотношение сторон : 1,85:1
Режим частоты кадров : Постоянный
Частота кадров : 23,976 (24000/1001) кадра/сек
Цветовое пространство : YUV
Субдискретизация насыщенности : 4:2:0
Битовая глубина : 8 бит
Тип развёртки : Прогрессивная
Бит/(Пиксели*Кадры) : 0.305
Размер потока : 9,91 Гбайт (92%)
Заголовок : Abominable
Библиотека кодирования : x264 core 157 r2867+150 7e91e0e t_mod_Custom_2 [8-bit@all X86_64]
Настройки программы : cabac=1 / ref=4 / deblock=1:-3:-3 / analyse=0x3:0x133 / me=umh / subme=11 / psy=1 / fade_compensate=0.00 / psy_rd=0.90:0.10 / mixed_ref=1 / me_range=64 / chroma_me=1 / trellis=2 / 8x8dct=1 / cqm=0 / deadzone=21,11 / fast_pskip=0 / chroma_qp_offset=-4 / threads=32 / lookahead_threads=5 / sliced_threads=0 / nr=0 / decimate=1 / interlaced=0 / bluray_compat=0 / constrained_intra=0 / fgo=0 / bframes=8 / b_pyramid=2 / b_adapt=2 / b_bias=0 / direct=3 / weightb=1 / open_gop=0 / weightp=2 / keyint=250 / keyint_min=23 / scenecut=40 / intra_refresh=0 / rc_lookahead=60 / rc=crf / mbtree=0 / crf=18.0000 / qcomp=0.70 / qpmin=0:0:0 / qpmax=69:69:69 / qpstep=4 / vbv_maxrate=35000 / vbv_bufsize=35000 / crf_max=0.0 / nal_hrd=none / filler=0 / ip_ratio=1.40 / pb_ratio=1.30 / aq=3:1.00 / aq-sensitivity=10.00 / aq-factor=1.00:1.00:1.00 / aq2=0 / aq3=0
Язык : English
Default : Да
Forced : Нет

Аудио #1
Идентификатор : 2
Формат : AC-3
Формат/Информация : Audio Coding 3
Коммерческое название : Dolby Digital
Идентификатор кодека : A_AC3
Продолжительность : 1 ч. 37 м.
Вид битрейта : Постоянный
Битрейт : 384 Кбит/сек
Каналы : 6 каналов
ChannelLayout : L R C LFE Ls Rs
Частота : 48,0 КГц
Частота кадров : 31,250 кадров/сек (1536 SPF)
Битовая глубина : 16 бит
Метод сжатия : С потерями
Размер потока : 267 Мбайт (2%)
Заголовок : Dub [iTunes]
Язык : Russian
Default : Да
Forced : Да

Аудио #2
Идентификатор : 3
Формат : AC-3
Формат/Информация : Audio Coding 3
Коммерческое название : Dolby Digital
Идентификатор кодека : A_AC3
Продолжительность : 1 ч. 37 м.
Вид битрейта : Постоянный
Битрейт : 192 Кбит/сек
Каналы : 2 канала
ChannelLayout : L R
Частота : 48,0 КГц
Частота кадров : 31,250 кадров/сек (1536 SPF)
Битовая глубина : 16 бит
Метод сжатия : С потерями
Задержка видео : 30 мс.
Размер потока : 133 Мбайт (1%)
Заголовок : Dub [LeDoyen]
Язык : Ukrainian
Default : Нет
Forced : Нет

Аудио #3
Идентификатор : 4
Формат : AC-3
Формат/Информация : Audio Coding 3
Коммерческое название : Dolby Digital
Идентификатор кодека : A_AC3
Продолжительность : 1 ч. 37 м.
Вид битрейта : Постоянный
Битрейт : 640 Кбит/сек
Каналы : 6 каналов
ChannelLayout : L R C LFE Ls Rs
Частота : 48,0 КГц
Частота кадров : 31,250 кадров/сек (1536 SPF)
Битовая глубина : 16 бит
Метод сжатия : С потерями
Размер потока : 445 Мбайт (4%)
Заголовок : Original
Язык : English
Default : Нет
Forced : Нет

Текст #1
Идентификатор : 5
Формат : UTF-8
Идентификатор кодека : S_TEXT/UTF8
Идентификатор кодека/Информация : UTF-8 Plain Text
Продолжительность : 1 ч. 23 м.
Битрейт : 0 бит/сек
ElementCount : 9
Размер потока : 325 байт (0%)
Заголовок : Forced
Язык : Russian
Default : Нет
Forced : Нет

Текст #2
Идентификатор : 6
Формат : UTF-8
Идентификатор кодека : S_TEXT/UTF8
Идентификатор кодека/Информация : UTF-8 Plain Text
Продолжительность : 1 ч. 25 м.
Битрейт : 67 бит/сек
ElementCount : 998
Размер потока : 42,3 Кбайт (0%)
Заголовок : Full [by sub.Trader]
Язык : Russian
Default : Нет
Forced : Нет

Текст #3
Идентификатор : 7
Формат : UTF-8
Идентификатор кодека : S_TEXT/UTF8
Идентификатор кодека/Информация : UTF-8 Plain Text
Продолжительность : 1 ч. 25 м.
Битрейт : 46 бит/сек
ElementCount : 1175
Размер потока : 29,0 Кбайт (0%)
Заголовок : Full
Язык : English
Default : Нет
Forced : Нет

Текст #4
Идентификатор : 8
Формат : UTF-8
Идентификатор кодека : S_TEXT/UTF8
Идентификатор кодека/Информация : UTF-8 Plain Text
Продолжительность : 1 ч. 25 м.
Битрейт : 44 бит/сек
ElementCount : 891
Размер потока : 28,2 Кбайт (0%)
Заголовок : Full
Язык : German
Default : Нет
Forced : Нет

Текст #5
Идентификатор : 9
Формат : UTF-8
Идентификатор кодека : S_TEXT/UTF8
Идентификатор кодека/Информация : UTF-8 Plain Text
Продолжительность : 1 ч. 25 м.
Битрейт : 46 бит/сек
ElementCount : 996
Размер потока : 29,1 Кбайт (0%)
Заголовок : Full
Язык : French
Default : Нет
Forced : Нет

Меню
00:00:00.000 : :Глава 01
00:11:00.000 : :Глава 02
00:22:00.000 : :Глава 03
00:33:00.000 : :Глава 04
00:44:00.000 : :Глава 05
00:55:00.000 : :Глава 06
01:06:00.000 : :Глава 07
01:17:00.000 : :Глава 08
01:28:00.000 : :Глава 09

pb.wtf



Скачать Эверест через торрент https://img16.lostpic.net/2019/11/27/42b1d1a210349343ec1e2fc1a5628694.jpg Скачать фильм Эверест через торрент бесплантно в хорошем качестве Описание: Путешествие на самую высокую точку мира? Что может быть круче! Так решает Лу, когда случайно находит огромное, но очень милое ... 9.7 10 15
Info! Золотая раздача, скачанное не засчитывается.
Торрент: Зарегистрирован [2019-12-09 09:57] · скачан: 124 раз
Статус: √ проверено
Размер: 10.73 GB
Как cкачать? Как скачать Эверест через торрент | qTorrent

% Раздел Тема Автор DL S | L
Ultra HD (UHD: 2K, 4K, 8K) [ 7.73 GB ] Эверест / Abominable [2019 Мультфильм UHD BDRip 2160p] bober100 Скачать
1 | 0
3D Мультфильмы [ 17.65 GB ] Эверест в 3Д / Abominable 3D [2019 мультфильм BDRip 1080p] OverUnder / Вертикальная стереопара () serega768 Скачать
4 | 0
Иностранные мультфильмы [ 1.67 GB ] Эверест / Abominable [2019 Мультфильм BDRip-AVC] bober100 Скачать
10 | 0
Ultra HD (UHD: 2K, 4K, 8K) [ 15.32 GB ] Эверест / Abominable [2019 Мультфильм UHD BDRip 2160p] [SDR] bober100 Скачать
1 | 0
Иностранные мультфильмы [ 1.42 GB ] Эверест / Abominable [2019 мультфильм BDRip] - Twi7ter Скачать
38 | 3
Зарубежные Мультфильмы (BDRip 1080p, 720p, Blu-ray, BD-Remux) [ 4.43 GB ] Эверест / Abominable [2019 Мультфильм BDRip 720p] bober100 Скачать
19 | 0
Зарубежные Мультфильмы (BDRip 1080p, 720p, Blu-ray, BD-Remux) [ 21.21 GB ] Эверест / Abominable [2019 Мультфильм BD Remux 1080p] bober100 Скачать
1 | 0

28-11-2019 20:33  

Отключить всю рекламу на сайте

    Дорогой пользователь! Огромная просьба, поблагодарите релизера, оцените раздачу и оставьте свои комментарий, если Вы скачали Эверест через торрент бесплатно! Внесите свою лепту в развитие PiratBit!
    Комментировать посты могут только пользователи прошедшие не сложную регистрацию
    Показать сообщения:    

    Эверест через торрент
    Скачать бесплатно Эверест
    Эверест скачать торрент
    Эверест смотреть онлайн
    Cкачать фильм Эверест бесплатно
    Эверест скачать торрент в хорошем качестве
    Эверест смотреть онлайн бесплатно в хорошем качестве


    Вы не можете начинать темы
    Вы не можете отвечать на сообщения
    Вы не можете редактировать свои сообщения
    Вы не можете удалять свои сообщения
    Вы не можете голосовать в опросах
    Вы не можете прикреплять файлы к сообщениям
    Вы можете скачивать файлы