2 сезон

iTunes

MVO

1

2 сезон

iTunes

iTunes

1 сезон

RePack

30

Ultimate

ВАЖНО

ИГРА 18+

pack

RePack

MK11
pack

Легкие деньги

RePack

jed

RePack

fifa19

RePack

RDR2

RePack

NEED FOR SPEED™ PAYBACK

4 сезон

9 сезон

Бесстыжие 9 сезон

Все сериалы

все сериалы на PB.wtf

RePack

FAR CRY 5

Anonymous, доброй ночи, мы не успеваем собрать деньги на оплату серверов за декабрь и январь, помогите нам пожалуйста в это трудное время. В качестве благодарности мы отключим Вам всю рекламу на сайте (укажите свой ник в строку Ваше имя)!

×
  
Magnet ссылка

Куртизанки / Harlots / Сезон: 2 / Серии: 1-8 из 8 [2018, драма, WEBRip 1080p] [MVO] (HDRezka Studio) pb.wtf

Куртизанки через торрент pb.wtf

Размер: 22.39 GB | Добавлен: 1 год 1 мес. назад | Торрент скачан:3 раза
Скачать  

06-12-2019 12:18 Куртизанки Скачать торрент  

Куртизанки / Harlots
Год выпуска: 2018
Жанр: Драма
Выпущено: США, Великобритания
Продолжительность: 1 x ~ 00:50:00
Перевод: Профессиональный (многоголосый, закадровый) *HDRezka Studio*

Режиссер: Коки Гидройч, Чина Му-Ен, Джилл Робертсон

В ролях: Саманта Мортон, Бронвин Джеймс, Алекса Дейвис, Дороти Эткинсон, Рой Бек, Джессика Браун-Финдлэй, Рори Флек-Бирн, Поппи Корби-Туч ,Лив Тайлер, Холли Демпси, Розалинд Элизар

О сериале: История, события которой разворачиваются в восемнадцатом столетии, повествует о Маргарет Уэллс (Саманта Мортон) — владелице борделя, отдающей все силы и заработанные средства на то, чтобы взрастить своих дочерей.

rating

Файл

Качество: WEBRip 1080p
Формат: MKV
Видео: MPEG-4 AVC, ~ 7 367 kb/s, 1920x1080
Аудио: AC3 , 2 Ch / 48kHz / 192kbps / 16-bit
Субтитры: русские (форсированные)
General
Unique ID : 83376880540361407167575165223643129342 (0x3EB9CD975238C3099B17742DC60425FE)
Complete name : E:\Harlots.2018.S02.1080p\Harlots.S02E01.WEBRip.1080p.rus.2.0.HDREZKA.STUDIO.mkv
Format : Matroska
Format version : Version 4 / Version 2
File size : 2.73 GiB
Duration : 50 min 36 s
Overall bit rate mode : Variable
Overall bit rate : 7 712 kb/s
Encoded date : UTC 2019-06-27 11:03:16
Writing application : mkvmerge v28.2.0 ('The Awakening') 64-bit
Writing library : libebml v1.3.6 + libmatroska v1.4.9

Video
ID : 1
Format : AVC
Format/Info : Advanced Video Codec
Format profile : High@L4.1
Format settings : CABAC / 1 Ref Frames
Format settings, CABAC : Yes
Format settings, RefFrames : 1 frame
Codec ID : V_MPEG4/ISO/AVC
Duration : 50 min 36 s
Bit rate mode : Variable
Bit rate : 7 367 kb/s
Maximum bit rate : 2 000 kb/s
Width : 1 920 pixels
Height : 1 080 pixels
Display aspect ratio : 16:9
Frame rate mode : Constant
Frame rate : 25.000 FPS
Color space : YUV
Chroma subsampling : 4:2:0
Bit depth : 8 bits
Scan type : Progressive
Bits/(Pixel*Frame) : 0.142
Stream size : 2.60 GiB (96%)
Default : Yes
Forced : No

Audio
ID : 2
Format : AC-3
Format/Info : Audio Coding 3
Format settings, Endianness : Big
Codec ID : A_AC3
Duration : 50 min 36 s
Bit rate mode : Constant
Bit rate : 192 kb/s
Channel(s) : 2 channels
Channel positions : Front: L R
Sampling rate : 48.0 kHz
Frame rate : 31.250 FPS (1536 SPF)
Bit depth : 16 bits
Compression mode : Lossy
Stream size : 69.5 MiB (2%)
Language : Russian
Service kind : Complete Main
Default : Yes
Forced : No
скриншот   скриншот   скриншот  
pb.wtf



Скачать Куртизанки через торрент https://i111.fastpic.ru/big/2019/1206/e6/da18a36526bffa9c10893bde13a25ce6.png Скачать фильм Куртизанки через торрент бесплантно в хорошем качестве В ролях: Саманта Мортон, Бронвин Джеймс, Алекса Дейвис, Дороти Эткинсон, Рой Бек, Джессика Браун-Финдлэй, Рори Флек-Бирн, Поппи Корби-Туч ... 10 10 2
Торрент: Зарегистрирован [2019-12-06 12:18] · скачан: 3 раз
Статус: √ проверено
Размер: 22.39 GB
Как cкачать? Как скачать Куртизанки через торрент | UTorrent

% Раздел Тема Автор DL S | L
Зарубежные сериалы [ 6.21 GB ] Куртизанки / Harlots / Сезон: 2 / Серии: 1-8 из 8 [2018 WEB-DLRip] [MVO] killermax2013 Скачать
1 | 0
Зарубежные сериалы [ 16.81 GB ] Куртизанки / Harlots / Сезон: 2 / Серии: 1-8 из 8 [2018 WEB-DL 1080p] [MVO] killermax2013 Скачать
1 | 0
Зарубежные сериалы [ 5 GB ] Куртизанки / Harlots / Сезон: 2 / Серии: 1-8 из 8 [2018 WEB-DLRip] [MVO] killermax2013 Скачать
1 | 0
Зарубежные сериалы [ 7.29 GB ] Куртизанки / Harlots / Сезон: 2 / Серии: 1-8 из 8 [2018 WEB-DL 720p] [MVO] killermax2013 Скачать
1 | 0

28-11-2019 20:33  

Отключить всю рекламу на сайте

    Дорогой пользователь! Огромная просьба, поблагодарите релизера, оцените раздачу и оставьте свои комментарий, если Вы скачали Куртизанки через торрент бесплатно! Внесите свою лепту в развитие PiratBit!
    Комментировать посты могут только пользователи прошедшие не сложную регистрацию
    Показать сообщения:    

    Куртизанки через торрент
    Скачать бесплатно Куртизанки
    Куртизанки скачать торрент
    Куртизанки смотреть онлайн
    Cкачать фильм Куртизанки бесплатно
    Куртизанки скачать торрент в хорошем качестве
    Куртизанки смотреть онлайн бесплатно в хорошем качестве


    Вы не можете начинать темы
    Вы не можете отвечать на сообщения
    Вы не можете редактировать свои сообщения
    Вы не можете удалять свои сообщения
    Вы не можете голосовать в опросах
    Вы не можете прикреплять файлы к сообщениям
    Вы можете скачивать файлы