Ссылка на приватное зеркало всего за 1$. Внимание количество ограничено!!!

OK

1+1

iTunes

мы

OK

1

WEB-DLRip

Джокер

Пифагор

Ведьмак / The Witcher сериал

Лицензия

ПШазам

ОК

Оно 2

iTunes

30
pack

Вам бонус

ВАЖНО

!!Акция!!

Alien_RageХит недели

RePack

Resident Evil 21

ИГРА 18+

pack

RePack

jed

!!Акция!!

Alien_Rage

RePack

fifa19

RePack

Assassins Creed: Odyssey

RePack

NEED FOR SPEED™ PAYBACK

4 сезон

9 сезон

Бесстыжие 9 сезон

Все сериалы

все сериалы на PB.wtf

RePack

FAR CRY 5
  

30 дней ночи / 30 Days of Night (Дэвид Слэйд) [2007, Ужасы, боевик, триллер, WEB-DL 1080p, (Open Matte)] DUB+MVO+3xAVO+DVO (ukr) pb.wtf

30 дней ночи через торрент pb.wtf

Размер: 11.71 GB | Добавлен: 1 мес. 10 д. назад | Торрент скачан:54 раза
Скачать  

07-12-2019 13:00 30 дней ночи Скачать торрент  

30 дней ночи / 30 Days of Night
Год выпуска: 2007
Страна: CША, Новая Зеландия
Студия: Columbia Pictures, Dark Horse Entertainment, Ghost House Pictures
Жанр: Ужасы, боевик, триллер
Продолжительность: 01:53:19
Перевод: Дублированный, профессиональный многоголосый, авторский
Субтитры: Русские (Full), английские (Full, SDH, Vampire Dialogue)

Режиссер: Дэвид Слэйд

rating

В ролях: Джош Хартнетт, Мелисса Джордж, Дэнни Хьюстон, Бен Фостер, Марк Бун Джуниор, Марк Рендалл, Эмбер Сейнсбури, Ману Беннетт, Меган Фрэнич, Джоэль Тобек

Описание: Каждый год на 30 дней маленький город Бэрроу на Аляске погружается во тьму. Арктическая ночь — вещь вполне нормальная для этих мест. Но вот однажды, шериф городка Олсон начинает подозревать, что на этот раз тридцатидневный сумрак не пройдёт так гладко. Вампиры подготавливают кровавый рейд на Бэрроу.

Качество: WEB-DL 1080p | Open Matte
Формат: MKV

Видео: MPEG-4 AVC, 1920x1080 (16:9), 8535 kbps, 23.976 fps
Аудио 1: Russian: 48.0 KHz, AC3, 6 ch, 448 Kbps - Дубляж
Аудио 2: Russian: 48.0 KHz, DTS, 6 ch, 1509 Kbps - MVO, Киномания
Аудио 3: Russian: 48.0 KHz, DTS, 6 ch, 1509 Kbps - AVO, Ю. Немахов
Аудио 4: Russian: 48.0 KHz, AC3, 6 ch, 448 Kbps - AVO, Д. Есарев
Аудио 5: Russian: 48.0 KHz, AC3, 6 ch, 448 Kbps - AVO, Д. Строев
Аудио 6: Ukrainian: 48.0 KHz, AC3, 6 ch, 384 Kbps - DVO, 1+1
Аудио 7: English: 48.0 KHz, DTS, 6 ch, 1509 Kbps - Оригинал
скриншот  скриншот  скриншот  скриншот  

скриншот  скриншот  скриншот  скриншот  

General
Unique ID : 321379177556313684495476502413282208232 (0xF1C760CED1F3CC1D3A963F210D2969E8)
Complete name : 30.Days.Of.Night.2007.Open.Matte.1080p.WEB-DL.5xRus.Ukr.Eng.TeamHD.mkv
Format : Matroska
Format version : Version 4 / Version 2
File size : 11.7 GiB
Duration : 1 h 53 min
Overall bit rate : 14.8 Mb/s
Encoded date : UTC 2018-09-04 08:47:32
Writing application : mkvmerge v25.0.0 ('Prog Noir') 64-bit
Writing library : libebml v1.3.6 + libmatroska v1.4.9

Video
ID : 1
Format : AVC
Format/Info : Advanced Video Codec
Format profile : High@L4
Format settings, CABAC : Yes
Format settings, RefFrames : 4 frames
Codec ID : V_MPEG4/ISO/AVC
Duration : 1 h 53 min
Bit rate : 8 535 kb/s
Width : 1 920 pixels
Height : 1 080 pixels
Display aspect ratio : 16:9
Frame rate mode : Constant
Frame rate : 23.976 (24000/1001) FPS
Color space : YUV
Chroma subsampling : 4:2:0
Bit depth : 8 bits
Scan type : Progressive
Bits/(Pixel*Frame) : 0.172
Stream size : 6.76 GiB (58%)
Default : Yes
Forced : No
Color range : Limited
Color primaries : BT.709
Transfer characteristics : BT.709
Matrix coefficients : BT.709

Audio #1
ID : 2
Format : AC-3
Format/Info : Audio Coding 3
Format settings, Endianness : Big
Codec ID : A_AC3
Duration : 1 h 53 min
Bit rate mode : Constant
Bit rate : 448 kb/s
Channel(s) : 6 channels
Channel positions : Front: L C R, Side: L R, LFE
Sampling rate : 48.0 kHz
Frame rate : 31.250 FPS (1536 SPF)
Bit depth : 16 bits
Compression mode : Lossy
Stream size : 363 MiB (3%)
Title : Дубляж
Language : Russian
Service kind : Complete Main
Default : Yes
Forced : No

Audio #2
ID : 3
Format : DTS
Format/Info : Digital Theater Systems
Mode : 16
Format settings, Endianness : Big
Codec ID : A_DTS
Duration : 1 h 53 min
Bit rate mode : Constant
Bit rate : 1 510 kb/s
Channel(s) : 6 channels
Channel positions : Front: L C R, Side: L R, LFE
Sampling rate : 48.0 kHz
Frame rate : 93.750 FPS (512 SPF)
Bit depth : 24 bits
Compression mode : Lossy
Stream size : 1.19 GiB (10%)
Title : Киномания
Language : Russian
Default : No
Forced : No

Audio #3
ID : 4
Format : DTS
Format/Info : Digital Theater Systems
Mode : 16
Format settings, Endianness : Big
Codec ID : A_DTS
Duration : 1 h 53 min
Bit rate mode : Constant
Bit rate : 1 510 kb/s
Channel(s) : 6 channels
Channel positions : Front: L C R, Side: L R, LFE
Sampling rate : 48.0 kHz
Frame rate : 93.750 FPS (512 SPF)
Bit depth : 24 bits
Compression mode : Lossy
Stream size : 1.19 GiB (10%)
Title : Ю. Немахов
Language : Russian
Default : No
Forced : No

Audio #4
ID : 5
Format : AC-3
Format/Info : Audio Coding 3
Format settings, Endianness : Big
Codec ID : A_AC3
Duration : 1 h 53 min
Bit rate mode : Constant
Bit rate : 448 kb/s
Channel(s) : 6 channels
Channel positions : Front: L C R, Side: L R, LFE
Sampling rate : 48.0 kHz
Frame rate : 31.250 FPS (1536 SPF)
Bit depth : 16 bits
Compression mode : Lossy
Stream size : 363 MiB (3%)
Title : Д. Есарев
Language : Russian
Service kind : Complete Main
Default : No
Forced : No

Audio #5
ID : 6
Format : AC-3
Format/Info : Audio Coding 3
Format settings, Endianness : Big
Codec ID : A_AC3
Duration : 1 h 53 min
Bit rate mode : Constant
Bit rate : 448 kb/s
Channel(s) : 6 channels
Channel positions : Front: L C R, Side: L R, LFE
Sampling rate : 48.0 kHz
Frame rate : 31.250 FPS (1536 SPF)
Bit depth : 16 bits
Compression mode : Lossy
Stream size : 363 MiB (3%)
Title : Д. Строев
Language : Russian
Service kind : Complete Main
Default : No
Forced : No

Audio #6
ID : 7
Format : AC-3
Format/Info : Audio Coding 3
Format settings, Endianness : Big
Codec ID : A_AC3
Duration : 1 h 53 min
Bit rate mode : Constant
Bit rate : 384 kb/s
Channel(s) : 6 channels
Channel positions : Front: L C R, Side: L R, LFE
Sampling rate : 48.0 kHz
Frame rate : 31.250 FPS (1536 SPF)
Bit depth : 16 bits
Compression mode : Lossy
Stream size : 311 MiB (3%)
Title : 1+1
Language : Ukrainian
Service kind : Complete Main
Default : No
Forced : No

Audio #7
ID : 8
Format : DTS
Format/Info : Digital Theater Systems
Mode : 16
Format settings, Endianness : Big
Codec ID : A_DTS
Duration : 1 h 53 min
Bit rate mode : Constant
Bit rate : 1 510 kb/s
Channel(s) : 6 channels
Channel positions : Front: L C R, Side: L R, LFE
Sampling rate : 48.0 kHz
Frame rate : 93.750 FPS (512 SPF)
Bit depth : 24 bits
Compression mode : Lossy
Stream size : 1.19 GiB (10%)
Language : English
Default : No
Forced : No

Text #1
ID : 9
Format : UTF-8
Codec ID : S_TEXT/UTF8
Codec ID/Info : UTF-8 Plain Text
Duration : 1 h 44 min
Bit rate : 41 b/s
Count of elements : 751
Stream size : 31.3 KiB (0%)
Language : Russian
Default : No
Forced : No

Text #2
ID : 10
Format : UTF-8
Codec ID : S_TEXT/UTF8
Codec ID/Info : UTF-8 Plain Text
Duration : 1 h 41 min
Bit rate : 27 b/s
Count of elements : 739
Stream size : 20.3 KiB (0%)
Language : English
Default : No
Forced : No

Text #3
ID : 11
Format : UTF-8
Codec ID : S_TEXT/UTF8
Codec ID/Info : UTF-8 Plain Text
Duration : 1 h 46 min
Bit rate : 31 b/s
Count of elements : 993
Stream size : 24.2 KiB (0%)
Language : English
Default : No
Forced : No

Text #4
ID : 12
Format : UTF-8
Codec ID : S_TEXT/UTF8
Codec ID/Info : UTF-8 Plain Text
Duration : 1 h 5 min
Bit rate : 1 b/s
Count of elements : 23
Stream size : 538 Bytes (0%)
Language : English
Default : No
Forced : No

Text #5
ID : 13
Format : UTF-8
Codec ID : S_TEXT/UTF8
Codec ID/Info : UTF-8 Plain Text
Duration : 1 h 46 min
Bit rate : 30 b/s
Count of elements : 1128
Stream size : 24.1 KiB (0%)
Title : SDH Amazon
Language : English
Default : No
Forced : No

pb.wtf



Скачать 30 дней ночи через торрент http://i6.imageban.ru/out/2013/08/10/3fd0810b2a86deb416b0f1169edcde81.png Скачать фильм 30 дней ночи через торрент бесплантно в хорошем качестве Описание: Каждый год на 30 дней маленький город Бэрроу на Аляске погружается во тьму. Арктическая ночь — вещь вполне нормальная для этих ... 8.8 10 10
Торрент: Зарегистрирован [2019-12-07 13:00] · скачан: 54 раз
Статус: √ проверено
Размер: 11.71 GB
Как cкачать? Как скачать 30 дней ночи через торрент | qTorrent

% Раздел Тема Автор DL S | L
Фильмы (Blu-ray, BD-Remux, HDDVD) [ 32.56 GB ] 30 дней ночи / 30 Days of Night [2007 BDRemux 1080p от NovaLan] DUB+MVO+AVO Ворон Скачать
1 | 0
Фильмы (Blu-ray, BD-Remux, HDDVD) [ 19.66 GB ] 30 дней ночи: Темные времена / 30 Days of Night: Dark Days [2010 BDRemux 1080p от NovaLan] Ворон Скачать
1 | 0
Фильмы (Blu-ray, BD-Remux, HDDVD) [ 32.18 GB ] 30 дней ночи / 30 Days of Night [2007 BD-Remux MVO] Pavlin Скачать
1 | 0
Фильмы 2006-2008 [ 1.46 GB ] 30 дней ночи / 30 Days of Night [ 2007 Новая Зеландия HDRip DUB ] кэп Скачать
1 | 0
Фильмы 2010 [ 1.45 GB ] 30 дней ночи: Тёмные дни / 30 Days of Night: Dark Days [2010 BDRip лицензия] SD Скачать
2 | 0
Фильмы [HD 720p, 1080p] (Хороший звук DUB, MVO) [ 8.47 GB ] 30 дней ночи / 30 Days of Night [2007 ] SibFrost Скачать
1 | 0

28-11-2019 20:33  

Отключить всю рекламу на сайте

    Дорогой пользователь! Огромная просьба, поблагодарите релизера, оцените раздачу и оставьте свои комментарий, если Вы скачали 30 дней ночи через торрент бесплатно! Внесите свою лепту в развитие PiratBit!
    Комментировать посты могут только пользователи прошедшие не сложную регистрацию
    Показать сообщения:    

    30 дней ночи через торрент
    Скачать бесплатно 30 дней ночи
    30 дней ночи скачать торрент
    30 дней ночи смотреть онлайн
    Cкачать фильм 30 дней ночи бесплатно
    30 дней ночи скачать торрент в хорошем качестве
    30 дней ночи смотреть онлайн бесплатно в хорошем качестве


    Вы не можете начинать темы
    Вы не можете отвечать на сообщения
    Вы не можете редактировать свои сообщения
    Вы не можете удалять свои сообщения
    Вы не можете голосовать в опросах
    Вы не можете прикреплять файлы к сообщениям
    Вы можете скачивать файлы