Ссылка на приватное зеркало нашего сайта всего за 1$. Внимание количество ограничено!!!

2 сезон

iTunes

1 сезон

1

iTunes

iTunes

iTunes

1 сезон

RePack

30

ИГРА 18+

pack

ВАЖНО

!!Акция!!

Alien_RageХит недели

RePack

MK11
pack

Забери бонус

RePack

jed

!!Акция!!

Alien_Rage

RePack

fifa19

RePack

Assassins Creed: Odyssey

RePack

NEED FOR SPEED™ PAYBACK

4 сезон

9 сезон

Бесстыжие 9 сезон

Все сериалы

все сериалы на PB.wtf

RePack

FAR CRY 5
  

Дорогая подруга / Серии: 1-2 из 2 (Александр Грабарь) [2019, Мелодрама, SATRip] pb.wtf

Дорогая подруга через торрент pb.wtf

Размер: 2.54 GB | Добавлен: 10 мес. назад | Торрент скачан:49 раз
Скачать  

07-12-2019 14:05 Дорогая подруга Скачать торрент  

Дорогая подруга Год выпуска: 2019
Страна: Россия
Жанр: Мелодрама
Продолжительность: ~ 01:35:00
Перевод: Не требуется Русский
Субтитры: отсутствуют

Режиссер: Александр Грабарь



В ролях: Софья Хилькова, Анна Дианова, Антон Соколов (II), Евгений Зарубин, Дмитрий Пустильник, Елена Саар

Описание: Катя — обычная девушка из деревни, но у неё радужные перспективы. Она отличница, скоро закончит институт и у неё есть любимый человек. Но жизнь решает испытать Катю на прочность: проблемы с жильём и болезнь матери меняют её судьбу. Героине приходит на помощь её однокурсница и подруга Лиза, дочь богатого бизнесмена. Она приглашает Катю пожить у неё в особняке и даёт деньги на операцию матери. Девушка безмерно благодарна Лизе за помощь, в то время как та всё чаще просит об ответных услугах. Вскоре требования «дорогой» подруги перестают быть невинными…

Качество: SATRip
Формат: AVI

Видео: XviD, 720x400, ~ 1700 Кбит/с, 0.236 bit/pixel
Аудио: МР3, 48,0 КГц, 2 ch, 192 Кбит/с
скриншот  скриншот  скриншот  скриншот  скриншот  

Общее
Полное имя : D:\Дорогая.Подруга.XviD.2019.SATRip.Kinozal-Reliz.7turza\01.Дорогая.Подруга.Kinozal-Reliz.7turza.avi
Формат : AVI
Формат/Информация : Audio Video Interleave
Профиль формата : OpenDML
Размер файла : 1,26 Гбайт
Продолжительность : 1 ч. 34 м.
Общий поток : 1905 Кбит/сек
Название фильма : S01 E01 # from 7turza #
Программа кодирования : Lavf58.29.100

Видео
Идентификатор : 0
Формат : MPEG-4 Visual
Профиль формата : Advanced Simple@L5
Настройки формата : BVOP1
Параметр BVOP формата : 1
Параметр QPel формата : Нет
Параметр GMC формата : Без точки перехода
Параметр матрицы формата : Default (H.263)
Идентификатор кодека : XVID
Идентификатор кодека/Подсказка : XviD
Продолжительность : 1 ч. 34 м.
Битрейт : 1698 Кбит/сек
Ширина : 720 пикселей
Высота : 400 пикселей
Соотношение сторон : 16:9
Частота кадров : 25,000 кадров/сек
Цветовое пространство : YUV
Субдискретизация насыщенности : 4:2:0
Битовая глубина : 8 бит
Тип развёртки : Прогрессивная
Бит/(Пиксели*Кадры) : 0.236
Размер потока : 1,12 Гбайт (89%)
Библиотека кодирования : XviD 67

Аудио
Идентификатор : 1
Формат : MPEG Audio
Версия формата : Version 1
Профиль формата : Layer 3
Настройки формата : Joint stereo / MS Stereo
Идентификатор кодека : 55
Идентификатор кодека/Подсказка : MP3
Продолжительность : 1 ч. 34 м.
Вид битрейта : Постоянный
Битрейт : 192 Кбит/сек
Каналы : 2 канала
Частота : 48,0 КГц
Размер потока : 130 Мбайт (10%)
Выравнивание : Соединение по промежуткам
Продолжительность промежутка : 24 мс. (0,60 видеокадр)
Библиотека кодирования : LAME3.100

pb.wtf



Скачать Дорогая подруга через торрент https://c.radikal.ru/c36/1912/b7/d74b16c43ff9.jpg Скачать фильм Дорогая подруга через торрент бесплантно в хорошем качестве Описание: Катя — обычная девушка из деревни, но у неё радужные перспективы. Она отличница, скоро закончит институт и у неё есть любимый ... 10 10 5
Торрент: Зарегистрирован [2019-12-07 14:05] · скачан: 49 раз
Статус: √ проверено
Размер: 2.54 GB
Как cкачать? Как скачать Дорогая подруга через торрент | qTorrent

28-11-2019 20:33  

Отключить всю рекламу на сайте

    Дорогой пользователь! Огромная просьба, поблагодарите релизера, оцените раздачу и оставьте свои комментарий, если Вы скачали Дорогая подруга через торрент бесплатно! Внесите свою лепту в развитие PiratBit!
    Комментировать посты могут только пользователи прошедшие не сложную регистрацию
    Показать сообщения:    

    Дорогая подруга через торрент
    Скачать бесплатно Дорогая подруга
    Дорогая подруга скачать торрент
    Дорогая подруга смотреть онлайн
    Cкачать фильм Дорогая подруга бесплатно
    Дорогая подруга скачать торрент в хорошем качестве
    Дорогая подруга смотреть онлайн бесплатно в хорошем качестве


    Вы не можете начинать темы
    Вы не можете отвечать на сообщения
    Вы не можете редактировать свои сообщения
    Вы не можете удалять свои сообщения
    Вы не можете голосовать в опросах
    Вы не можете прикреплять файлы к сообщениям
    Вы можете скачивать файлы