Marvel's Avengers Deluxe Edition (супер цена) 159р. Внимание количество ограничено!!!

2 сезон

iTunes

iTunes

1

iTunes

iTunes

iTunes

WEBRip

iTunes

30
pack

Новость дня

ВАЖНО

!!Акция!!

Alien_RageХит недели

RePack

Horizon Zero Dawn

ИГРА 18+

pack

RePack

jed

!!Акция!!

Alien_Rage

RePack

fifa19

RePack

Assassins Creed: Odyssey

RePack

NEED FOR SPEED™ PAYBACK

4 сезон

9 сезон

Бесстыжие 9 сезон

Все сериалы

все сериалы на PB.wtf

RePack

FAR CRY 5
  

Марадона в Мексике / Maradona in Mexico / Maradona en Sinaloa / Сезон: 1 / Эпизоды: 1-7 из 7 [2019, документальный, комедия, драма, спорт, WEBRip 1080p] [MVO] (AMS) pb.wtf

Марадона в Мексике через торрент pb.wtf

Размер: 13.4 GB | Добавлен: 9 мес. назад | Торрент скачан:0 раз
Скачать  

07-12-2019 15:22 Марадона в Мексике Скачать торрент  

Марадона в Мексике / Maradona in Mexico / Maradona en Sinaloa


Год выпуска: 2019
Страна: Аргентина, США, Мексика
Жанр: Документальный, комедия, драма, спорт
Продолжительность: ~ 00:30:00
Перевод: Профессиональный (многоголосый закадровый)- AMS

Режиссёр: -

В ролях: Диего Марадона и другие

Описание: Новый документальный сериал «Марадона в Мексике» (Maradona in Mexico – в оригинале Maradona en Sinaloa, «Марадона в Синалоа») расскажет о недолгом этапе тренерской карьеры аргентинца. 6 сентября 2018 года Марадона стал тренером и техническим директором «Дорадос» – клуба из второго дивизиона Мексики.

Фильм проследит за 10-месячным периодом в карьере Диего Марадоны: с сентября 2018 года, когда он возглавил футбольный клуб «Дорадос» из второй мексиканской лиги, до июня 2019 года — тогда аргентинец ушел с поста тренера. За эти 10 месяцев команда приняла участие в 38 матчах и выиграла в 20 из них, но так и не сумела пробиться в высшую лигу. Сообщалось, что Марадона покинул Мексику из-за проблем со здоровьем.

rating

Релиз -

Качество: WEBRip 1080p
Формат: MKV
Видео: AVC, 1920x1080, 16:9, 24 к/с, ~7500-11200 кбит/с (переменный)
Аудио: Русский, AC3, 48.0 кГц, 6 каналов, ~640 кбит/с
Аудио: Английский, AC3, 48.0 кГц, 6 каналов, ~640 кбит/с
Субтитры: Русские, английские, испанские
General
Unique ID : 203605063784496407604580334957249083603 (0x992CE8AECB3E02733DC7B4EBB1E2B8D3)
Complete name : E:\Maradona.in.Mexico.S01.1080p.WEBRip.AMS\Maradona.in.Mexico.S01E01.1080p.WEBRip.AMS.mkv
Format : Matroska
Format version : Version 4 / Version 2
File size : 1.73 GiB
Duration : 28 min 52 s
Overall bit rate mode : Variable
Overall bit rate : 8 591 kb/s
Movie name : Maradona in Mexico 1x01 - MVO AMS (vk.com/pro_ams) for Kino.pub
Encoded date : UTC 2019-11-30 01:24:10
Writing application : mkvmerge v8.2.0 ('World of Adventure') 64bit
Writing library : libebml v1.3.1 + libmatroska v1.4.2

Video
ID : 1
Format : AVC
Format/Info : Advanced Video Codec
Format profile : Main@L4
Format settings : CABAC / 3 Ref Frames
Format settings, CABAC : Yes
Format settings, RefFrames : 3 frames
Codec ID : V_MPEG4/ISO/AVC
Duration : 28 min 52 s
Bit rate mode : Variable
Bit rate : 7 140 kb/s
Nominal bit rate : 7 500 kb/s
Maximum bit rate : 11.2 Mb/s
Width : 1 920 pixels
Height : 1 080 pixels
Display aspect ratio : 16:9
Frame rate mode : Constant
Frame rate : 24.000 FPS
Color space : YUV
Chroma subsampling : 4:2:0
Bit depth : 8 bits
Scan type : Progressive
Bits/(Pixel*Frame) : 0.143
Stream size : 1.44 GiB (83%)
Title : Maradona in Mexico 1x01 - MVO AMS (vk.com/pro_ams) for Kino.pub
Writing library : x264 core 148 r2715 7e75228
Encoding settings : cabac=1 / ref=3 / deblock=1:0:0 / analyse=0x1:0x111 / me=umh / subme=10 / psy=1 / psy_rd=1.00:0.00 / mixed_ref=1 / me_range=24 / chroma_me=1 / trellis=2 / 8x8dct=0 / cqm=0 / deadzone=21,11 / fast_pskip=1 / chroma_qp_offset=-2 / threads=6 / lookahead_threads=1 / sliced_threads=0 / nr=0 / decimate=1 / interlaced=0 / bluray_compat=0 / stitchable=1 / constrained_intra=0 / bframes=2 / b_pyramid=0 / b_adapt=2 / b_bias=0 / direct=3 / weightb=1 / open_gop=0 / weightp=2 / keyint=250 / keyint_min=24 / scenecut=0 / intra_refresh=0 / rc_lookahead=48 / rc=2pass / mbtree=1 / bitrate=7500 / ratetol=1.0 / qcomp=0.50 / qpmin=6 / qpmax=51 / qpstep=4 / cplxblur=20.0 / qblur=0.5 / vbv_maxrate=11250 / vbv_bufsize=15000 / nal_hrd=vbr / filler=0 / ip_ratio=1.40 / aq=1:1.00
Default : Yes
Forced : No

Audio #1
ID : 2
Format : AC-3
Format/Info : Audio Coding 3
Format settings, Endianness : Big
Codec ID : A_AC3
Duration : 28 min 52 s
Bit rate mode : Constant
Bit rate : 640 kb/s
Channel(s) : 6 channels
Channel positions : Front: L C R, Side: L R, LFE
Sampling rate : 48.0 kHz
Frame rate : 31.250 FPS (1536 SPF)
Bit depth : 16 bits
Compression mode : Lossy
Stream size : 132 MiB (7%)
Title : MVO AMS
Language : Russian
Service kind : Complete Main
Default : Yes
Forced : No

Audio #2
ID : 3
Format : E-AC-3
Format/Info : Enhanced Audio Coding 3
Format settings, Endianness : Big
Codec ID : A_EAC3
Duration : 28 min 52 s
Bit rate mode : Constant
Bit rate : 640 kb/s
Channel(s) : 6 channels
Channel positions : Front: L C R, Side: L R, LFE
Sampling rate : 48.0 kHz
Frame rate : 187.500 FPS (256 SPF)
Compression mode : Lossy
Stream size : 132 MiB (7%)
Title : Original
Language : Spanish
Service kind : Complete Main
Default : No
Forced : No

Text #1
ID : 4
Format : UTF-8
Codec ID : S_TEXT/UTF8
Codec ID/Info : UTF-8 Plain Text
Title : Rus-Subs
Language : Russian
Default : No
Forced : No

Text #2
ID : 5
Format : UTF-8
Codec ID : S_TEXT/UTF8
Codec ID/Info : UTF-8 Plain Text
Title : Eng-Subs
Language : English
Default : No
Forced : No

Text #3
ID : 6
Format : UTF-8
Codec ID : S_TEXT/UTF8
Codec ID/Info : UTF-8 Plain Text
Title : Spa-Subs (Forced)
Language : Spanish
Default : No
Forced : No

Text #4
ID : 7
Format : UTF-8
Codec ID : S_TEXT/UTF8
Codec ID/Info : UTF-8 Plain Text
Title : Spa-Subs
Language : Spanish
Default : No
Forced : No

Text #5
ID : 8
Format : UTF-8
Codec ID : S_TEXT/UTF8
Codec ID/Info : UTF-8 Plain Text
Title : SDH
Language : Spanish
Default : No
Forced : No
скриншот  скриншот  скриншот  
pb.wtf



Скачать Марадона в Мексике через торрент https://i111.fastpic.ru/big/2019/1207/a7/d1f48c9b9090fba8512b0d832164aaa7.jpg Скачать фильм Марадона в Мексике через торрент бесплантно в хорошем качестве Описание: Новый документальный сериал «Марадона в Мексике» (Maradona in Mexico – в оригинале Maradona en Sinaloa, «Марадона в Синалоа») ... 10 10 1
Торрент: Зарегистрирован [2019-12-07 15:22] · скачан: 0 раз
Статус: √ проверено
Размер: 13.4 GB
Как cкачать? Как скачать Марадона в Мексике через торрент | qTorrent

% Раздел Тема Автор DL S | L
Футбол [ 4.72 GB ] Марадона в Мексике / Maradona in Mexico / Maradona en Sinaloa / Сезон: 1 / Эпизоды: 1-7 из 7 [2019 документальный WEBRip] [MVO] killermax2013 Скачать
1 | 0

28-11-2019 20:33  

Отключить всю рекламу на сайте

    Дорогой пользователь! Огромная просьба, поблагодарите релизера, оцените раздачу и оставьте свои комментарий, если Вы скачали Марадона в Мексике через торрент бесплатно! Внесите свою лепту в развитие PiratBit!
    Комментировать посты могут только пользователи прошедшие не сложную регистрацию
    Показать сообщения:    

    Марадона в Мексике через торрент
    Скачать бесплатно Марадона в Мексике
    Марадона в Мексике скачать торрент
    Марадона в Мексике смотреть онлайн
    Cкачать фильм Марадона в Мексике бесплатно
    Марадона в Мексике скачать торрент в хорошем качестве
    Марадона в Мексике смотреть онлайн бесплатно в хорошем качестве


    Вы не можете начинать темы
    Вы не можете отвечать на сообщения
    Вы не можете редактировать свои сообщения
    Вы не можете удалять свои сообщения
    Вы не можете голосовать в опросах
    Вы не можете прикреплять файлы к сообщениям
    Вы можете скачивать файлы