Ссылка на приватное зеркало всего за 1$. Внимание количество ограничено!!!

OK

1+1

iTunes

мы

OK

1

WEB-DLRip

Джокер

Пифагор

Ведьмак / The Witcher сериал

Лицензия

ПШазам

ОК

Оно 2

iTunes

30
pack

Вам бонус

ВАЖНО

!!Акция!!

Alien_RageХит недели

RePack

Resident Evil 21

ИГРА 18+

pack

RePack

jed

RePack

fifa19

RePack

Assassins Creed: Odyssey

RePack

NEED FOR SPEED™ PAYBACK

4 сезон

9 сезон

Бесстыжие 9 сезон

Все сериалы

все сериалы на PB.wtf

RePack

FAR CRY 5
  

Марадона в Мексике / Maradona in Mexico / Maradona en Sinaloa / Сезон: 1 / Эпизоды: 1-7 из 7 [2019, документальный, комедия, драма, спорт, WEBRip] [MVO] (AMS) pb.wtf

Марадона в Мексике через торрент pb.wtf

Размер: 4.72 GB | Добавлен: 1 мес. 16 д. назад | Торрент скачан:1 раз
Скачать  

07-12-2019 15:30 Марадона в Мексике Скачать торрент  

Марадона в Мексике / Maradona in Mexico / Maradona en Sinaloa


Год выпуска: 2019
Страна: Аргентина, США, Мексика
Жанр: Документальный, комедия, драма, спорт
Продолжительность: ~ 00:30:00
Перевод: Профессиональный (многоголосый закадровый)- AMS

Режиссёр: -

В ролях: Диего Марадона и другие

Описание: Новый документальный сериал «Марадона в Мексике» (Maradona in Mexico – в оригинале Maradona en Sinaloa, «Марадона в Синалоа») расскажет о недолгом этапе тренерской карьеры аргентинца. 6 сентября 2018 года Марадона стал тренером и техническим директором «Дорадос» – клуба из второго дивизиона Мексики.

Фильм проследит за 10-месячным периодом в карьере Диего Марадоны: с сентября 2018 года, когда он возглавил футбольный клуб «Дорадос» из второй мексиканской лиги, до июня 2019 года — тогда аргентинец ушел с поста тренера. За эти 10 месяцев команда приняла участие в 38 матчах и выиграла в 20 из них, но так и не сумела пробиться в высшую лигу. Сообщалось, что Марадона покинул Мексику из-за проблем со здоровьем.

rating

Релиз -

Качество: WEBRip
Формат: AVI
Видео: XvID, 720x400, 16:9, 24 к/с, ~2100 кбит/с
Аудио: Русский, AC3, 48.0 кГц, 6 каналов, ~384 кбит/с
Аудио: Английский, AC3, 48.0 кГц, 6 каналов, ~384 кбит/с
Субтитры: Русские, английские, испанские
General
Complete name : E:\Maradona.in.Mexico.S01.400p.WEBRip.AMS\Maradona.in.Mexico.S01E01.400p.WEBRip.AMS.avi
Format : AVI
Format/Info : Audio Video Interleave
File size : 596 MiB
Duration : 28 min 52 s
Overall bit rate : 2 884 kb/s
Movie name : Maradona in Mexico 1x01 - MVO AMS (vk.com/pro_ams) for Kino.pub
Writing application : Lavf57.71.100

Video
ID : 0
Format : MPEG-4 Visual
Format profile : Advanced Simple@L5
Format settings : BVOP2
Format settings, BVOP : 2
Format settings, QPel : No
Format settings, GMC : No warppoints
Format settings, Matrix : Default (MPEG)
Codec ID : XVID
Codec ID/Hint : XviD
Duration : 28 min 52 s
Bit rate : 1 991 kb/s
Width : 720 pixels
Height : 400 pixels
Display aspect ratio : 16:9
Frame rate : 24.000 FPS
Color space : YUV
Chroma subsampling : 4:2:0
Bit depth : 8 bits
Scan type : Progressive
Compression mode : Lossy
Bits/(Pixel*Frame) : 0.288
Stream size : 411 MiB (69%)
Title : Maradona in Mexico 1x01 - MVO AMS (vk.com/pro_ams) for Kino.pub
Writing library : XviD 67

Audio #1
ID : 1
Format : AC-3
Format/Info : Audio Coding 3
Format settings, Endianness : Big
Codec ID : 2000
Duration : 28 min 52 s
Bit rate mode : Constant
Bit rate : 384 kb/s
Channel(s) : 6 channels
Channel positions : Front: L C R, Side: L R, LFE
Sampling rate : 48.0 kHz
Frame rate : 31.250 FPS (1536 SPF)
Bit depth : 16 bits
Compression mode : Lossy
Stream size : 79.3 MiB (13%)
Alignment : Aligned on interleaves
Title : MVO AMS
Service kind : Complete Main

Audio #2
ID : 2
Format : AC-3
Format/Info : Audio Coding 3
Format settings, Endianness : Big
Codec ID : 2000
Duration : 28 min 52 s
Bit rate mode : Constant
Bit rate : 384 kb/s
Channel(s) : 6 channels
Channel positions : Front: L C R, Side: L R, LFE
Sampling rate : 48.0 kHz
Frame rate : 31.250 FPS (1536 SPF)
Bit depth : 16 bits
Compression mode : Lossy
Stream size : 79.3 MiB (13%)
Alignment : Aligned on interleaves
Title : Original
Service kind : Complete Main
скриншот  скриншот  скриншот  
pb.wtf



Скачать Марадона в Мексике через торрент https://i111.fastpic.ru/big/2019/1207/a7/d1f48c9b9090fba8512b0d832164aaa7.jpg Скачать фильм Марадона в Мексике через торрент бесплантно в хорошем качестве Описание: Новый документальный сериал «Марадона в Мексике» (Maradona in Mexico – в оригинале Maradona en Sinaloa, «Марадона в Синалоа») ... 10 10 1
Торрент: Зарегистрирован [2019-12-07 15:30] · скачан: 1 раз
Статус: √ проверено
Размер: 4.72 GB
Как cкачать? Как скачать Марадона в Мексике через торрент | qTorrent

% Раздел Тема Автор DL S | L
Футбол [ 13.4 GB ] Марадона в Мексике / Maradona in Mexico / Maradona en Sinaloa / Сезон: 1 / Эпизоды: 1-7 из 7 [2019 документальный WEBRip 1080p] [MVO] killermax2013 Скачать
1 | 0

28-11-2019 20:33  

Отключить всю рекламу на сайте

    Дорогой пользователь! Огромная просьба, поблагодарите релизера, оцените раздачу и оставьте свои комментарий, если Вы скачали Марадона в Мексике через торрент бесплатно! Внесите свою лепту в развитие PiratBit!
    Комментировать посты могут только пользователи прошедшие не сложную регистрацию
    Показать сообщения:    

    Марадона в Мексике через торрент
    Скачать бесплатно Марадона в Мексике
    Марадона в Мексике скачать торрент
    Марадона в Мексике смотреть онлайн
    Cкачать фильм Марадона в Мексике бесплатно
    Марадона в Мексике скачать торрент в хорошем качестве
    Марадона в Мексике смотреть онлайн бесплатно в хорошем качестве


    Вы не можете начинать темы
    Вы не можете отвечать на сообщения
    Вы не можете редактировать свои сообщения
    Вы не можете удалять свои сообщения
    Вы не можете голосовать в опросах
    Вы не можете прикреплять файлы к сообщениям
    Вы можете скачивать файлы