Ссылка на приватное зеркало всего за 1$. Внимание количество ограничено!!!

OK

1+1

iTunes

мы

OK

1

WEB-DLRip

Джокер

Пифагор

Ведьмак / The Witcher сериал

Лицензия

ПШазам

ОК

Оно 2

iTunes

30
pack

Вам бонус

ВАЖНО

!!Акция!!

Alien_RageХит недели

RePack

Resident Evil 21

ИГРА 18+

pack

RePack

jed

!!Акция!!

Alien_Rage

RePack

fifa19

RePack

Assassins Creed: Odyssey

RePack

NEED FOR SPEED™ PAYBACK

4 сезон

9 сезон

Бесстыжие 9 сезон

Все сериалы

все сериалы на PB.wtf

RePack

FAR CRY 5
  

Расскажи мне сказку / Tell Me a Story / Сезон: 2 / Серии: 1-7 из 10 (Лиз Фридлендер) [2019, Триллер, WEB-DLRip] MVO [Jaskier] pb.wtf

Расскажи мне сказку через торрент pb.wtf

Раздают: 1 [ 0 KB/s ] Качают: 1 [ 0 KB/s ]
Размер: 4.17 GB | Добавлен: 1 ч. 17 мин. назад | Торрент скачан:0 раз
Скачать  

07-12-2019 15:42 Расскажи мне сказку Скачать торрент  

Расскажи мне сказку | Tell Me a Story
Год выпуска: 2019
Страна: США
Жанр: Триллер
Продолжительность: 00:45:00
Перевод: Профессиональный (многоголосый) | Jaskier [без цензуры]
Субтитры: отсутствуют

Режиссер: Лиз Фридлендер

rating

В ролях: Пол Уэсли, Джеймс Волк, Крис Брошу, Остин Роберт Батлер, Даниэль Кэмпбелл, Дави Сантос, Ким Кэтролл, Забрина Гевара, Сэм Джагер, Стерлинг Найт, Билли Магнуссен, Джеймс Маслоу, Дориан Миссик

Описание: Психологический триллер «Расскажи мне сказку» — это современное переосмысление знаменитых историй, которые всем помнят с детства. «Три поросенка», «Джек и бобовый стебель» и «Красная шапочка» рассказываются в сериале на новый лад и трансформируются в мрачный и запутанный сюжет о любви, расставании, жадности, мести и убийстве.

Качество: WEB-DLRip
Формат: AVI

Видео: XviD, ~ 1400 kbps, 720x304, 24 fps
Аудио#1: MP3, 48,0 КГц, 2 ch, 128 kbps - [RUS]
Аудио#2: MP3, 48,0 КГц, 2 ch, 128 kbps - [ENG]
скриншот  скриншот  скриншот  

Общее
Полное имя : D:\Tell.Me.A.Story. Season 2 (400p l Jaskier)\Tell.Me.A.Story.S02E01.400p.Jaskier.avi
Формат : AVI
Формат/Информация : Audio Video Interleave
Размер файла : 586 Мбайт
Продолжительность : 49 м. 5 с.
Общий поток : 1669 Кбит/сек
Программа кодирования : VirtualDubMod 1.5.10.3 | www.virtualdub-fr.org || (build 2550/release)
Библиотека кодирования : VirtualDubMod build 2550/release

Видео
Идентификатор : 0
Формат : MPEG-4 Visual
Профиль формата : Advanced Simple@L5
Параметр BVOP формата : 2
Параметр QPel формата : Нет
Параметр GMC формата : Без точки перехода
Параметр матрицы формата : Выборочная
Идентификатор кодека : XVID
Идентификатор кодека/Подсказка : XviD
Продолжительность : 49 м. 5 с.
Битрейт : 1337 Кбит/сек
Ширина : 720 пикселей
Высота : 304 пикселя
Соотношение сторон : 2,35:1
Частота кадров : 24,000 кадра/сек
Цветовое пространство : YUV
Субдискретизация насыщенности : 4:2:0
Битовая глубина : 8 бит
Тип развёртки : Прогрессивная
Метод сжатия : С потерями
Бит/(Пиксели*Кадры) : 0.254
Размер потока : 469 Мбайт (80%)
Библиотека кодирования : XviD 73

Аудио #1
Идентификатор : 1
Формат : MPEG Audio
Версия формата : Version 1
Профиль формата : Layer 3
Режим : Joint stereo
Расширение режима : MS Stereo
Идентификатор кодека : 55
Идентификатор кодека/Подсказка : MP3
Продолжительность : 49 м. 5 с.
Вид битрейта : Постоянный
Битрейт : 128 Кбит/сек
Каналы : 2 канала
Частота : 48,0 КГц
Метод сжатия : С потерями
Размер потока : 44,9 Мбайт (8%)
Выравнивание : Соединение по промежуткам

Аудио #2
Идентификатор : 2
Формат : MPEG Audio
Версия формата : Version 1
Профиль формата : Layer 3
Режим : Joint stereo
Расширение режима : MS Stereo
Идентификатор кодека : 55
Идентификатор кодека/Подсказка : MP3
Продолжительность : 49 м. 5 с.
Вид битрейта : Постоянный
Битрейт : 128 Кбит/сек
Каналы : 2 канала
Частота : 48,0 КГц
Метод сжатия : С потерями
Размер потока : 44,9 Мбайт (8%)
Выравнивание : Соединение по промежуткам

Внимание! Раздача ведётся путём добавления новых серий; при каждом добавлении создётся новый торрент. Чтобы начать докачку новой серии, пользователям необходимо сделать следующее:
1. остановить скачивание;
2. удалить старый торрент у себя из клиента (старые серии удалять не надо);
3. скачать новый торрент и запустить его у себя в клиенте вместо старого, при этом указать клиенту путь в старую папку куда и должно происходить скачивание новых серий.
Ваш клиент при этом должен произвести хеширование (проверку) старой папки (если не производит сам - помогите ему сделать это), и будет докачивать только те серии которых у вас ещё нет. Старые серии при этом не удаляются, а продолжают раздаваться!
Eсли вы уже удалили старые серии, то предотвратить повторную закачку старых серий можно, отжав галочку в соответствующих местах при запуске нового торрента.
pb.wtf



Скачать Расскажи мне сказку через торрент https://i111.fastpic.ru/big/2019/1207/08/85903640ae037770883128ee31d1a808.png Скачать фильм Расскажи мне сказку через торрент бесплантно в хорошем качестве Описание: Психологический триллер «Расскажи мне сказку» — это современное переосмысление знаменитых историй, которые всем помнят с детства. ... 10 10 3
Торрент: Зарегистрирован [2020-01-18 12:50] · скачан: 0 раз
Статус: √ проверено
Размер: 4.17 GB
Как cкачать? Как скачать Расскажи мне сказку через торрент | qTorrent

% Раздел Тема Автор DL S | L
Зарубежные сериалы [ 18.16 GB ] Расскажи мне сказку / Tell Me a Story / Сезон: 2 / Серии: 1-7 из 10 [2019 WEB-DL 1080p] MVO [Jaskier] bober100 Скачать
1 | 1
Зарубежные сериалы [ 9.16 GB ] Расскажи мне сказку / Tell Me a Story / Сезон: 2 / Серии: 1-7 из 10 [2019 WEB-DL 720p] MVO [Jaskier] bober100 Скачать
1 | 0

28-11-2019 20:33  

Отключить всю рекламу на сайте

    Дорогой пользователь! Огромная просьба, поблагодарите релизера, оцените раздачу и оставьте свои комментарий, если Вы скачали Расскажи мне сказку через торрент бесплатно! Внесите свою лепту в развитие PiratBit!
    Комментировать посты могут только пользователи прошедшие не сложную регистрацию
    Показать сообщения:    

    Расскажи мне сказку через торрент
    Скачать бесплатно Расскажи мне сказку
    Расскажи мне сказку скачать торрент
    Расскажи мне сказку смотреть онлайн
    Cкачать фильм Расскажи мне сказку бесплатно
    Расскажи мне сказку скачать торрент в хорошем качестве
    Расскажи мне сказку смотреть онлайн бесплатно в хорошем качестве


    Вы не можете начинать темы
    Вы не можете отвечать на сообщения
    Вы не можете редактировать свои сообщения
    Вы не можете удалять свои сообщения
    Вы не можете голосовать в опросах
    Вы не можете прикреплять файлы к сообщениям
    Вы можете скачивать файлы