Ссылка на приватное зеркало всего за 1$. Внимание количество ограничено!!!

OK

1+1

iTunes

мы

OK

1

WEB-DLRip

Джокер

Пифагор

Ведьмак / The Witcher сериал

iTunes

ПШазам

ОК

Оно 2

iTunes

30
pack

Вам бонус

ВАЖНО

!!Акция!!

Alien_RageХит недели

RePack

Resident Evil 21

ИГРА 18+

pack

RePack

jed

RePack

fifa19

RePack

Assassins Creed: Odyssey

RePack

NEED FOR SPEED™ PAYBACK

4 сезон

9 сезон

Бесстыжие 9 сезон

Все сериалы

все сериалы на PB.wtf

RePack

FAR CRY 5
  

Расскажи мне сказку / Tell Me a Story / Сезон: 2 / Серии: 1-7 из 10 (Лиз Фридлендер) [2019, Триллер, WEB-DL 1080p] MVO [Jaskier] pb.wtf

Расскажи мне сказку через торрент pb.wtf

Размер: 18.16 GB | Добавлен: 9 д. назад | Торрент скачан:1 раз
Скачать  

07-12-2019 15:42 Расскажи мне сказку Скачать торрент  

Расскажи мне сказку | Tell Me a Story
Год выпуска: 2019
Страна: США
Жанр: Триллер
Продолжительность: 00:45:00
Перевод: Профессиональный (многоголосый) | Jaskier [без цензуры]
Субтитры: отсутствуют

Режиссер: Лиз Фридлендер

rating

В ролях: Пол Уэсли, Джеймс Волк, Крис Брошу, Остин Роберт Батлер, Даниэль Кэмпбелл, Дави Сантос, Ким Кэтролл, Забрина Гевара, Сэм Джагер, Стерлинг Найт, Билли Магнуссен, Джеймс Маслоу, Дориан Миссик

Описание: Психологический триллер «Расскажи мне сказку» — это современное переосмысление знаменитых историй, которые всем помнят с детства. «Три поросенка», «Джек и бобовый стебель» и «Красная шапочка» рассказываются в сериале на новый лад и трансформируются в мрачный и запутанный сюжет о любви, расставании, жадности, мести и убийстве.

Качество: WEB-DL 1080p
Формат: MKV

Видео: 1920x1080 (16:9) | X264 | 5800 kbps | 24.000 fps
Аудио#1: AC3, 48,0 КГц, 6 ch, 384 kbps - [RUS]
Аудио#2: AC3, 48,0 КГц, 6 ch, 384 kbps - [ENG]
скриншот  скриншот  скриншот  

Общее
Уникальный идентификатор : 180288670536301081479551724991340697733 (0x87A255BD721C8564A35A55360C4D5885)
Полное имя : D:\Tell.Me.A.Story. Season 2 (1080p l Jaskier)\Tell.Me.A.Story.S02E01.1080p.Jaskier.mkv
Формат : Matroska
Версия формата : Version 2
Размер файла : 2,26 Гбайт
Продолжительность : 49 м. 5 с.
Режим общего битрейта : Постоянный
Общий поток : 6579 Кбит/сек
Дата кодирования : UTC 2019-12-07 14:53:33
Программа кодирования : mkvmerge v7.8.0 ('River Man') 32bit built on Apr 3 2015 12:11:22
Библиотека кодирования : libebml v1.3.1 + libmatroska v1.4.2

Видео
Идентификатор : 1
Формат : AVC
Формат/Информация : Advanced Video Codec
Профиль формата : High@L4
Параметр CABAC формата : Да
Параметр RefFrames формата : 4 кадра
Идентификатор кодека : V_MPEG4/ISO/AVC
Продолжительность : 49 м. 5 с.
Вид битрейта : Постоянный
Битрейт : 5680 Кбит/сек
Номинальный битрейт : 10000 Кбит/сек
Ширина : 1920 пикселей
Высота : 1080 пикселей
Соотношение сторон : 16:9
Режим частоты кадров : Постоянный
Частота кадров : 24,000 кадра/сек
Цветовое пространство : YUV
Субдискретизация насыщенности : 4:2:0
Битовая глубина : 8 бит
Тип развёртки : Прогрессивная
Бит/(Пиксели*Кадры) : 0.114
Размер потока : 1,95 Гбайт (86%)
Default : Да
Forced : Нет
Цветовой диапазон : Limited
Основные цвета : BT.709
Характеристики трансфера : BT.709
Коэффициенты матрицы : BT.709

Аудио #1
Идентификатор : 2
Формат : AC-3
Формат/Информация : Audio Coding 3
Расширение режима : CM (complete main)
Параметр Endianness формата : Big
Идентификатор кодека : A_AC3
Продолжительность : 49 м. 5 с.
Вид битрейта : Постоянный
Битрейт : 384 Кбит/сек
Каналы : 6 каналов
Расположение каналов : Front: L C R, Side: L R, LFE
Частота : 48,0 КГц
Частота кадров : 31,250 кадров/сек (1536 spf)
Метод сжатия : С потерями
Размер потока : 135 Мбайт (6%)
Язык : Russian
Default : Да
Forced : Нет

Аудио #2
Идентификатор : 3
Формат : AC-3
Формат/Информация : Audio Coding 3
Расширение режима : CM (complete main)
Параметр Endianness формата : Big
Идентификатор кодека : A_AC3
Продолжительность : 49 м. 5 с.
Вид битрейта : Постоянный
Битрейт : 384 Кбит/сек
Каналы : 6 каналов
Расположение каналов : Front: L C R, Side: L R, LFE
Частота : 48,0 КГц
Частота кадров : 31,250 кадров/сек (1536 spf)
Метод сжатия : С потерями
Размер потока : 135 Мбайт (6%)
Язык : English
Default : Нет
Forced : Нет

Внимание! Раздача ведётся путём добавления новых серий; при каждом добавлении создётся новый торрент. Чтобы начать докачку новой серии, пользователям необходимо сделать следующее:
1. остановить скачивание;
2. удалить старый торрент у себя из клиента (старые серии удалять не надо);
3. скачать новый торрент и запустить его у себя в клиенте вместо старого, при этом указать клиенту путь в старую папку куда и должно происходить скачивание новых серий.
Ваш клиент при этом должен произвести хеширование (проверку) старой папки (если не производит сам - помогите ему сделать это), и будет докачивать только те серии которых у вас ещё нет. Старые серии при этом не удаляются, а продолжают раздаваться!
Eсли вы уже удалили старые серии, то предотвратить повторную закачку старых серий можно, отжав галочку в соответствующих местах при запуске нового торрента.
pb.wtf



Скачать Расскажи мне сказку через торрент https://i111.fastpic.ru/big/2019/1207/08/85903640ae037770883128ee31d1a808.png Скачать фильм Расскажи мне сказку через торрент бесплантно в хорошем качестве Описание: Психологический триллер «Расскажи мне сказку» — это современное переосмысление знаменитых историй, которые всем помнят с детства. ... 10 10 2
Торрент: Зарегистрирован [2020-01-18 12:52] · скачан: 1 раз
Статус: √ проверено
Размер: 18.16 GB
Как cкачать? Как скачать Расскажи мне сказку через торрент | qTorrent

% Раздел Тема Автор DL S | L
Зарубежные сериалы [ 9.16 GB ] Расскажи мне сказку / Tell Me a Story / Сезон: 2 / Серии: 1-7 из 10 [2019 WEB-DL 720p] MVO [Jaskier] bober100 Скачать
1 | 0
Зарубежные сериалы [ 4.17 GB ] Расскажи мне сказку / Tell Me a Story / Сезон: 2 / Серии: 1-7 из 10 [2019 WEB-DLRip] MVO [Jaskier] bober100 Скачать
1 | 0

28-11-2019 20:33  

Отключить всю рекламу на сайте

    Дорогой пользователь! Огромная просьба, поблагодарите релизера, оцените раздачу и оставьте свои комментарий, если Вы скачали Расскажи мне сказку через торрент бесплатно! Внесите свою лепту в развитие PiratBit!
    Комментировать посты могут только пользователи прошедшие не сложную регистрацию
    Показать сообщения:    

    Расскажи мне сказку через торрент
    Скачать бесплатно Расскажи мне сказку
    Расскажи мне сказку скачать торрент
    Расскажи мне сказку смотреть онлайн
    Cкачать фильм Расскажи мне сказку бесплатно
    Расскажи мне сказку скачать торрент в хорошем качестве
    Расскажи мне сказку смотреть онлайн бесплатно в хорошем качестве


    Вы не можете начинать темы
    Вы не можете отвечать на сообщения
    Вы не можете редактировать свои сообщения
    Вы не можете удалять свои сообщения
    Вы не можете голосовать в опросах
    Вы не можете прикреплять файлы к сообщениям
    Вы можете скачивать файлы