Всегда рабочее зеркало без VPN и Proxy просто перед .vidak.icu напиши любое слово или цифру, Пример http://4y0x.vidak.icu

MVO

2 сезон

2 сезон

1

1 сезон

iTunes

2 сезон

13

1 сезон

Deluxe

pack

Рекомендуем

Пиратка

30

ВАЖНО

RePack

MK11

RePack

jed

RePack

fifa19

RePack

RDR2

RePack

NEED FOR SPEED™ PAYBACK

Кинопоиск HD

6 сезон

 Острые козырьки 6 сезон

Все сериалы

все сериалы на PB.wtf

RePack

FAR CRY 5

Anonymous, нам критически не хватает 5601 руб. на оплату серверов и переферии за Апрель, помоги нам пожалуйста, вся надежда только на тебя. В благодарность мы отключим тебе всю рекламу на сайте!

×
  
Magnet ссылка

Суррогаты / Surrogates (Джонатан Мостоу) [2009, фантастика, боевик, триллер, WEB-DL 1080p] [Open Matte] [DUB] + [AVO] (А. Гаврилов) pb.wtf

Суррогаты через торрент pb.wtf

Размер: 8.19 GB | Добавлен: 2 года 5 мес. назад | Торрент скачан:94 раза
Смотреть онлайн Суррогаты | Скачать    Ребята, помогите собрать деньги на оплату серверов!!!

07-12-2019 19:12 Суррогаты Скачать торрент  

Суррогаты / Surrogates / Open Matte Страна: США
Жанр: фантастика, боевик, триллер
Год выпуска: 2009
Продолжительность: 01:28:46
Перевод 1: Профессиональный (дублированный)
Перевод 2: Авторский (одноголосый) Андрей Гаврилов
Субтитры: русские (forced, full), английские

Режиссер: Джонатан Мостоу / Jonathan Mostow

В ролях: Брюс Уиллис, Рада Митчел, Розамунд Пайк, Борис Коджо, Джеймс Джинти, Джеймс Кромуэлл, Винг Рэймс, Джек Ноузуорти, Девин Рэтрей, Майкл Кудиц.

Описание: Действие разворачивается в будущем, в 2057 году, — когда люди практически перестанут общаться между собой и полностью возложат эту функцию на плечи роботов-заменителей. Они сильнее, моложе, привлекательнее своих обладателей и даже могут быть другого пола. Но находится террорист, начинающий уничтожать идеальных андроидов. Полицейскому Тому Гриру предстоит узнать, какие причины движут злоумышленником, лишающим жизни людей и их марионеток, технически и физически совершенных.

rating
Семпл: http://sendfile.su/1533497

Качество видео: WEB-DL 1080p
Формат видео: MKV

Видео: 1920x1080, 23.976 fps, MPEG-4 AVC, 10.9 Mb/s
Аудио 1: Russian: 48 kHz, AC3, 6 ch, ~640 kbps - DUB
Аудио 2: Russian: 48 kHz, AC3, 6 ch, ~448 kbps - AVO Гаврилов
Аудио 3: Ukrainian: 48 kHz, AC3, 6 ch, ~640 kbps avg - DUB
Аудио 4: English: 48 kHz, EAC3, 6 ch, ~640 kbps
Формат субтитров: softsub (SRT)
General
Unique ID : 186595531375730494204806700646315438623 (0x8C60FDFCA8FA71EB9E72C2896625B21F)
Complete name : D:Surrogates.2009.Open.Matte.1080p.WEB-DL.mkv
Format : Matroska
Format version : Version 4
File size : 8.19 GiB
Duration : 1 h 28 min
Overall bit rate : 13.2 Mb/s
Encoded date : UTC 2019-12-07 16:31:52
Writing application : mkvmerge v8.3.0 ('Over the Horizon') 32bit
Writing library : libebml v1.3.1 + libmatroska v1.4.2

Video
ID : 1
Format : AVC
Format/Info : Advanced Video Codec
Format profile : High@L4
Format settings : CABAC / 4 Ref Frames
Format settings, CABAC : Yes
Format settings, Reference : 4 frames
Codec ID : V_MPEG4/ISO/AVC
Duration : 1 h 28 min
Bit rate : 10.9 Mb/s
Width : 1 920 pixels
Height : 1 080 pixels
Display aspect ratio : 16:9
Frame rate mode : Constant
Frame rate : 23.976 (24000/1001) FPS
Color space : YUV
Chroma subsampling : 4:2:0
Bit depth : 8 bits
Scan type : Progressive
Bits/(Pixel*Frame) : 0.219
Stream size : 6.73 GiB (82%)
Language : English
Default : Yes
Forced : No
Color range : Limited
Color primaries : BT.709
Transfer characteristics : BT.709
Matrix coefficients : BT.709

Audio #1
ID : 2
Format : AC-3
Format/Info : Audio Coding 3
Commercial name : Dolby Digital
Codec ID : A_AC3
Duration : 1 h 28 min
Bit rate mode : Constant
Bit rate : 640 kb/s
Channel(s) : 6 channels
Channel layout : L R C LFE Ls Rs
Sampling rate : 48.0 kHz
Frame rate : 31.250 FPS (1536 SPF)
Bit depth : 16 bits
Compression mode : Lossy
Stream size : 406 MiB (5%)
Title : DUB
Language : Russian
Service kind : Complete Main
Default : Yes
Forced : No

Audio #2
ID : 3
Format : AC-3
Format/Info : Audio Coding 3
Commercial name : Dolby Digital
Codec ID : A_AC3
Duration : 1 h 28 min
Bit rate mode : Constant
Bit rate : 448 kb/s
Channel(s) : 6 channels
Channel layout : L R C LFE Ls Rs
Sampling rate : 48.0 kHz
Frame rate : 31.250 FPS (1536 SPF)
Bit depth : 16 bits
Compression mode : Lossy
Stream size : 271 MiB (3%)
Title : AVO Гаврилов
Language : Russian
Service kind : Complete Main
Default : No
Forced : No

Audio #3
ID : 4
Format : AC-3
Format/Info : Audio Coding 3
Commercial name : Dolby Digital
Codec ID : A_AC3
Duration : 1 h 28 min
Bit rate mode : Constant
Bit rate : 640 kb/s
Channel(s) : 6 channels
Channel layout : L R C LFE Ls Rs
Sampling rate : 48.0 kHz
Frame rate : 31.250 FPS (1536 SPF)
Bit depth : 16 bits
Compression mode : Lossy
Stream size : 406 MiB (5%)
Language : Ukrainian
Service kind : Complete Main
Default : No
Forced : No

Audio #4
ID : 5
Format : E-AC-3
Format/Info : Enhanced AC-3
Commercial name : Dolby Digital Plus
Codec ID : A_EAC3
Duration : 1 h 28 min
Bit rate mode : Constant
Bit rate : 640 kb/s
Channel(s) : 6 channels
Channel layout : L R C LFE Ls Rs
Sampling rate : 48.0 kHz
Frame rate : 31.250 FPS (1536 SPF)
Compression mode : Lossy
Stream size : 406 MiB (5%)
Language : English
Service kind : Complete Main
Default : No
Forced : No

Text #1
ID : 6
Format : UTF-8
Codec ID : S_TEXT/UTF8
Codec ID/Info : UTF-8 Plain Text
Duration : 1 h 18 min
Bit rate : 5 b/s
Count of elements : 62
Stream size : 3.21 KiB (0%)
Title : forced
Language : Russian
Default : Yes
Forced : No

Text #2
ID : 7
Format : UTF-8
Codec ID : S_TEXT/UTF8
Codec ID/Info : UTF-8 Plain Text
Duration : 1 h 23 min
Bit rate : 79 b/s
Count of elements : 806
Stream size : 48.4 KiB (0%)
Title : Full 1
Language : Russian
Default : No
Forced : No

Text #3
ID : 8
Format : UTF-8
Codec ID : S_TEXT/UTF8
Codec ID/Info : UTF-8 Plain Text
Duration : 1 h 23 min
Bit rate : 73 b/s
Count of elements : 855
Stream size : 45.2 KiB (0%)
Title : Full 2
Language : Russian
Default : No
Forced : No

Text #4
ID : 9
Format : UTF-8
Codec ID : S_TEXT/UTF8
Codec ID/Info : UTF-8 Plain Text
Duration : 1 h 23 min
Bit rate : 46 b/s
Count of elements : 871
Stream size : 28.6 KiB (0%)
Language : English
Default : No
Forced : No
WEB-DL - BDRip
скриншот  скриншот  
скриншот  скриншот  скриншот  
pb.wtf



Скачать Суррогаты через торрент https://i111.fastpic.ru/big/2019/1207/bc/47d5bd8dc77f89900bfca6ca1a190dbc.jpg Скачать, смотреть онлайн Суррогаты бесплантно в хорошем качестве Описание: Действие разворачивается в будущем, в 2057 году, — когда люди практически перестанут общаться между собой и полностью возложат ... 9.8 10 5
Торрент: Зарегистрирован [2019-12-07 19:12] · скачан: 94 раз
Статус: √ проверено
Размер: 8.19 GB
Как cкачать? Как скачать Суррогаты через торрент | UTorrent

% Раздел Тема Автор DL S | L
Фильмы с авторской озвучкой [ 2.53 GB ] Суррогаты / Surrogates [2009 BDRip 1080p] [AVO] killermax2013 Скачать
1 | 0
Фильмы (Blu-ray, BD-Remux, HDDVD) [ 28.22 GB ] Суррогаты / Surrogates [2009 Blu-ray 1080p] DUB bober100 Скачать
1 | 0
Фильмы [HD 720p, 1080p] (Хороший звук DUB, MVO) [ 8.23 GB ] Суррогаты / Surrogates [2009 BDRip 1080p ] от R.G. HD-Films Seedtank Скачать
1 | 0
Фильмы 2009 [ 1.36 GB ] Суррогаты / Surrogates [2009 HDRip] IceDevil71 Скачать
1 | 0
Фильмы [HD 720p, 1080p] (Хороший звук DUB, MVO) [ 4.36 GB ] Суррогаты / Surrogates [2009 BDRip ] smaster Скачать
1 | 0
Фильмы (Blu-ray, BD-Remux, HDDVD) [ 18.51 GB ] Суррогаты / Surrogates [1080p] [2009 BD Remux] NarutoSasuke Скачать
1 | 0
Комиксы [ 14 MB ] The Surrogates / Суррогаты #1 [Rus 2005] IceDevil71 Скачать
1 | 0

28-11-2019 20:33  

Отключить всю рекламу на сайте

    Дорогой пользователь! Огромная просьба, поблагодарите релизера, оцените раздачу и оставьте свои комментарий, если Вы скачали Суррогаты через торрент бесплатно!
    Комментировать посты могут только пользователи прошедшие не сложную регистрацию
    Показать сообщения:    

    Суррогаты через торрент
    Скачать бесплатно Суррогаты
    Суррогаты скачать торрент
    Суррогаты смотреть онлайн
    Cкачать фильм Суррогаты бесплатно
    Суррогаты скачать торрент в хорошем качестве
    Суррогаты смотреть онлайн бесплатно в хорошем качестве


    Вы не можете начинать темы
    Вы не можете отвечать на сообщения
    Вы не можете редактировать свои сообщения
    Вы не можете удалять свои сообщения
    Вы не можете голосовать в опросах
    Вы не можете прикреплять файлы к сообщениям
    Вы можете скачивать файлы