Ссылка на приватное зеркало нашего сайта всего за 1$. Внимание количество ограничено!!!

2 сезон

iTunes

1 сезон

1

iTunes

iTunes

iTunes

1 сезон

RePack

30

ИГРА 18+

pack

ВАЖНО

!!Акция!!

Alien_RageХит недели

RePack

MK11
pack

Забери бонус

RePack

jed

!!Акция!!

Alien_Rage

RePack

fifa19

RePack

Assassins Creed: Odyssey

RePack

NEED FOR SPEED™ PAYBACK

4 сезон

9 сезон

Бесстыжие 9 сезон

Все сериалы

все сериалы на PB.wtf

RePack

FAR CRY 5
  

И это всё Роберт / Сезон: 1 / Серии: 1-8 из 8 (Андрей Линич) [2019, Драма, криминал, WEB-DL 720p] pb.wtf

И это всё Роберт через торрент pb.wtf

Размер: 7.83 GB | Добавлен: 6 мес. назад | Торрент скачан:10 раз
Скачать  

07-12-2019 20:03 И это всё Роберт Скачать торрент  

И это всё Роберт
Год выпуска: 2019
Страна: Россия
Жанр: Драма, криминал
Продолжительность: ~ 00:45:00
Субтитры: отсутствуют

Режиссер: Андрей Линич



В ролях: Александр Сергеев (VIII), Марат Хасанов (II), Полина Зиновьева, Наталья Панова, Александр Гришин, Рамиль Сабитов, Борис Хасанов, Тимур Латыпов, Анна Бурмистрова, Владислав Ветров, Роман Богданов, Андрей Афанасьев, Юлия Рудина, Вано Миранян, Екатерина Василенко, Александра Скачкова

Описание: Роберт Богданов работает учителем физики в обычной провинциальной школе. Он терпит насмешки учеников и живет от зарплаты до зарплаты. Став случайным соучастником ограбления платежного терминала и убийства наркодилера, Роберт попадает под прицел сразу с двух сторон. Теперь его ищет полиция, а также безжалостный криминальный авторитет Хан, полностью контролирующий улицы города. В довершение этих проблем, его дочери требуется срочная операция в Израиле, которая простому учителю не по карману. Законные способы получить деньги исчерпаны. Остаются только… законы физики.

Качество: WEB-DL 720p
Формат: MKV

Видео: 1280х546 (2,35:1), 25 fps, AVC MPEG-4 (x264), High@L4.1 ~ 3000 kbps avg, 0.167 bit/pixel
Аудио: 48 kHz, AC3, 2 ch, ~ 192 kbps avg
скриншот  скриншот  скриншот  скриншот  

Общее
Уникальный идентификатор : 234049682190064789238484643321221606026 (0xB01454428BDB3E85B84E469A1E45EA8A)
Полное имя : C:\I.eto.vsyo.robert.2019.WEB-DL.(720p).ExKinoRay\I.eto.vsyo.robert.E01.2019.WEB-DL.(720p).ExKinoRay.mkv
Формат : Matroska
Версия формата : Version 4
Размер файла : 1003 Мбайт
Продолжительность : 44 м. 10 с.
Общий поток : 3175 Кбит/сек
Дата кодирования : UTC 2020-04-15 15:39:11
Программа кодирования : mkvmerge v6.9.1 ('Blue Panther') 64bit built on Apr 18 2014 18:23:38
Библиотека кодирования : libebml v1.3.0 + libmatroska v1.4.1

Видео
Идентификатор : 1
Формат : AVC
Формат/Информация : Advanced Video Codec
Профиль формата : High@L4.1
Настройки формата : CABAC / 5 Ref Frames
Параметр CABAC формата : Да
Параметр RefFrames формата : 5 кадров
Параметр GOP формата : M=4, N=50
Идентификатор кодека : V_MPEG4/ISO/AVC
Продолжительность : 44 м. 10 с.
Битрейт : 2919 Кбит/сек
Ширина : 1280 пикселей
Высота : 546 пикселей
Соотношение сторон : 2,35:1
Режим частоты кадров : Постоянный
Частота кадров : 25,000 кадров/сек
Цветовое пространство : YUV
Субдискретизация насыщенности : 4:2:0
Битовая глубина : 8 бит
Тип развёртки : Прогрессивная
Бит/(Пиксели*Кадры) : 0.167
Размер потока : 922 Мбайт (92%)
Default : Да
Forced : Нет
Цветовой диапазон : Limited
Основные цвета : BT.709
Характеристики трансфера : BT.709
Коэффициенты матрицы : BT.709

Аудио
Идентификатор : 2
Формат : AC-3
Формат/Информация : Audio Coding 3
Коммерческое название : Dolby Digital
Идентификатор кодека : A_AC3
Продолжительность : 44 м. 10 с.
Вид битрейта : Постоянный
Битрейт : 192 Кбит/сек
Каналы : 2 канала
ChannelLayout : L R
Частота : 48,0 КГц
Частота кадров : 31,250 кадров/сек (1536 SPF)
Битовая глубина : 16 бит
Метод сжатия : С потерями
Размер потока : 60,7 Мбайт (6%)
Язык : Russian
ServiceKind/String : Complete Main
Default : Да
Forced : Нет

Внимание! Раздача ведётся путём добавления новых серий; при каждом добавлении создаётся новый торрент. Чтобы начать докачку новой серии, пользователям необходимо сделать следующее:
(1) остановить скачивание,
(2) удалить старый торрент у себя из клиента (старые серии удалять не надо),
(3) скачать новый торрент и запустить его у себя в клиенте вместо старого, при этом указать клиенту путь в старую папку куда и должно происходить скачивание новых серий.

Ваш клиент при этом должен произвести хеширование (проверку) старой папки (если не производит сам - помогите ему сделать это), и будет докачивать только те серии которых у вас ещё нет. Старые серии при этом не удаляются, а продолжают раздаваться!

Eсли вы уже удалили старые серии, то предотвратить повторную закачку старых серий можно, отжав галочку в соответсвующих местах при запуске нового торрента. По возможности, желательно не удалять старые серии как можно дольше чтобы релизёр не столько продолжал раздавать старые серии, а смог сконцентрироваться на новых.
pb.wtf



Скачать И это всё Роберт через торрент https://i111.fastpic.ru/big/2019/1121/5b/71a2c820efa5fa860fcaddb37b6e6e5b.jpg Скачать фильм И это всё Роберт через торрент бесплантно в хорошем качестве Описание: Роберт Богданов работает учителем физики в обычной провинциальной школе. Он терпит насмешки учеников и живет от зарплаты до ... 10 10 4
Торрент: Зарегистрирован [2020-04-16 08:45] · скачан: 10 раз
Статус: √ проверено
Размер: 7.83 GB
Как cкачать? Как скачать И это всё Роберт через торрент | qTorrent

% Раздел Тема Автор DL S | L
Наши сериалы [ 4.68 GB ] И это всё Роберт / Сезон: 1 / Серии: 1-8 из 8 [2019 WEB-DLRip] bober100 Скачать
1 | 0
Наши сериалы [ 9.08 GB ] И это всё Роберт / Сезон: 1 / Серии: 1-8 из 8 [2019 WEB-DL 1080p] bober100 Скачать
1 | 0
Наши сериалы [ 4.42 GB ] И это всё Роберт / Сезон: 1 / Серии: 1-8 из 8 [2019 WEBRip-AVC] bober100 Скачать
1 | 0

28-11-2019 20:33  

Отключить всю рекламу на сайте

    Дорогой пользователь! Огромная просьба, поблагодарите релизера, оцените раздачу и оставьте свои комментарий, если Вы скачали И это всё Роберт через торрент бесплатно! Внесите свою лепту в развитие PiratBit!
    Комментировать посты могут только пользователи прошедшие не сложную регистрацию
    Показать сообщения:    

    И это всё Роберт через торрент
    Скачать бесплатно И это всё Роберт
    И это всё Роберт скачать торрент
    И это всё Роберт смотреть онлайн
    Cкачать фильм И это всё Роберт бесплатно
    И это всё Роберт скачать торрент в хорошем качестве
    И это всё Роберт смотреть онлайн бесплатно в хорошем качестве


    Вы не можете начинать темы
    Вы не можете отвечать на сообщения
    Вы не можете редактировать свои сообщения
    Вы не можете удалять свои сообщения
    Вы не можете голосовать в опросах
    Вы не можете прикреплять файлы к сообщениям
    Вы можете скачивать файлы