Всегда рабочее зеркало без VPN и Proxy просто перед .vidak.icu напиши любое слово или цифру, Пример http://tqx2.vidak.icu

Лицензия

MVO

1 сезон

1

1 сезон

iTunes

1 сезон

13

1 сезон

Deluxe

pack

Рекомендуем

Repack

30

ВАЖНО

RePack

MK11

RePack

jed

RePack

fifa19

RePack

RDR2

RePack

NEED FOR SPEED™ PAYBACK

Кинопоиск HD

6 сезон

 Острые козырьки 6 сезон

Все сериалы

все сериалы на PB.wtf

RePack

FAR CRY 5
  
Magnet ссылка

Рэмбо: Последняя кровь / Rambo: Last Blood (Адриан Грюнберг) [2019, боевик, триллер, приключения, вестерн, HDRip-AVC] DUB [iTunes] | Расширенная версия / Extended Cut - ExKinoRay pb.wtf

Рэмбо: Последняя кровь через торрент pb.wtf

Раздают: 2 [ 0 KB/s ]
Размер: 1.4 GB | Добавлен: 2 года 8 мес. назад | Торрент скачан:938 раз
Смотреть онлайн Рэмбо: Последняя кровь | Скачать    Ребята, помогите собрать деньги на оплату серверов!!!

08-12-2019 14:24 Рэмбо: Последняя кровь Скачать торрент  

Информация о фильме
Название: Рэмбо: Последняя кровь
Оригинальное название: Rambo: Last Blood
Год выпуска: 2019
Жанр: Боевик, триллер, приключения
Режиссер: Адриан Грюнберг
В ролях: Сильвестр Сталлоне, Пас Вега, Ивет Монреаль, Луис Мэндилор, Оскар Хаенада, Шила Шах, Серхио Перис-Менчета, Джессика Мэдсен, Хоакин Косио, Адриана Барраса, Джени Ким, Паскасио Лопес, Александр Димитров

Описание: Он хранил секреты всю жизнь, но пришло время взглянуть в глаза прошлому. В последний раз собраться и стать безжалостной машиной для убийства. Рэмбо снова встанет на смертельно опасный путь — путь мести, который ему придется пройти до конца.

rating

Страна: США, Испания, Болгария
Студия: Balboa Productions, Campbell Grobman Films, Dadi Film Group
Продолжительность: 01:41:06
Перевод: Дублированный | iTunes

Формат: MKV
Качество: HDRip-AVC
Видео: MPEG-4 AVC, 720x302 (2.40:1), 24.000 fps, 1603 Kbps, 0.307 bit/pixel
Аудио: Russian: 48 kHz, AC3, 3/2 (L,C,R,l,r) + LFE ch, ~384 kbps avg | iTunes |
Субтитры: Русские (Full (Enigma)), английские (hardsub)
General
Unique ID : 239227593517458022912596991361076257511 (0xB3F98EFF9DCDA3CF841EB10F22ED62E7)
Complete name : F:\Rambo.Last.Blood.2019.HDRip.AVC.Ext.ExKinoRay.mkv
Format : Matroska
Format version : Version 2
File size : 1.40 GiB
Duration : 1 h 41 min
Overall bit rate : 1 988 kb/s
Movie name : Rambo Last Blood 2019 from ExKinoRay
Encoded date : UTC 2019-12-07 04:35:17
Writing application : mkvmerge v5.6.0 ('Kenya Kane') built on May 27 2012 16:44:04
Writing library : libebml v1.2.3 + libmatroska v1.3.0

Video
ID : 1
Format : AVC
Format/Info : Advanced Video Codec
Format profile : [email protected]
Format settings, CABAC : Yes
Format settings, ReFrames : 12 frames
Codec ID : V_MPEG4/ISO/AVC
Duration : 1 h 41 min
Bit rate : 1 603 kb/s
Width : 720 pixels
Height : 302 pixels
Display aspect ratio : 2.40:1
Frame rate mode : Constant
Frame rate : 24.000 FPS
Color space : YUV
Chroma subsampling : 4:2:0
Bit depth : 8 bits
Scan type : Progressive
Bits/(Pixel*Frame) : 0.307
Stream size : 1.11 GiB (79%)
Title : Enigma
Writing library : x264 core 152 r2851 ba24899
Encoding settings : cabac=1 / ref=12 / deblock=1:-2:-2 / analyse=0x3:0x113 / me=umh / subme=10 / psy=1 / psy_rd=1.05:0.10 / mixed_ref=1 / me_range=32 / chroma_me=1 / trellis=2 / 8x8dct=1 / cqm=0 / deadzone=21,11 / fast_pskip=0 / chroma_qp_offset=-3 / threads=9 / lookahead_threads=2 / sliced_threads=0 / nr=0 / decimate=0 / interlaced=0 / bluray_compat=0 / constrained_intra=0 / bframes=10 / b_pyramid=2 / b_adapt=2 / b_bias=0 / direct=3 / weightb=1 / open_gop=0 / weightp=2 / keyint=240 / keyint_min=24 / scenecut=40 / intra_refresh=0 / rc=2pass / mbtree=0 / bitrate=1603 / ratetol=1.0 / qcomp=0.60 / qpmin=0 / qpmax=51 / qpstep=4 / cplxblur=20.0 / qblur=0.5 / ip_ratio=1.40 / pb_ratio=1.30 / aq=1:1.00
Default : Yes
Forced : No
Color range : Limited
Color primaries : BT.709
Transfer characteristics : BT.709
Matrix coefficients : BT.709

Audio
ID : 2
Format : AC-3
Format/Info : Audio Coding 3
Mode extension : CM (complete main)
Format settings, Endianness : Big
Codec ID : A_AC3
Duration : 1 h 41 min
Bit rate mode : Constant
Bit rate : 384 kb/s
Channel(s) : 6 channels
Channel positions : Front: L C R, Side: L R, LFE
Sampling rate : 48.0 kHz
Frame rate : 31.250 FPS (1536 spf)
Compression mode : Lossy
Stream size : 278 MiB (19%)
Title : iTunes
Language : Russian
Default : Yes
Forced : No

Text
ID : 3
Format : UTF-8
Codec ID : S_TEXT/UTF8
Codec ID/Info : UTF-8 Plain Text
Title : Full (Enigma)
Language : Russian
Default : No
Forced : No

Menu
00:00:00.000 : :Chapter 1
00:07:53.375 : :Chapter 2
00:14:11.208 : :Chapter 3
00:21:29.833 : :Chapter 4
00:30:17.625 : :Chapter 5
00:41:13.292 : :Chapter 6
00:51:15.500 : :Chapter 7
00:57:20.292 : :Chapter 8
01:08:21.375 : :Chapter 9
01:16:52.333 : :Chapter 10
01:25:36.833 : :Chapter 11
01:33:57.583 : :Chapter 12


Релиз от:

Автор релиза: pb.wtf



Скачать Рэмбо: Последняя кровь через торрент https://b.radikal.ru/b38/1912/b7/f0a998379e50.png Скачать, смотреть онлайн Рэмбо: Последняя кровь бесплантно в хорошем качестве Описание: Он хранил секреты всю жизнь, но пришло время взглянуть в глаза прошлому. В последний раз собраться и стать безжалостной машиной ... 9.8 10 16
Info! Золотая раздача, скачанное не засчитывается.
Торрент: Зарегистрирован [2019-12-08 14:24] · скачан: 938 раз
Статус: √ проверено
Размер: 1.4 GB
Как cкачать? Как скачать Рэмбо: Последняя кровь через торрент | UTorrent

28-11-2019 20:33  

Отключить вcю реклaмy на сайте

08-12-2019 14:41 Рэмбо: Последняя кровь Скачать торрент  

отличный фильмpb.wtf



11-12-2019 11:54 Рэмбо: Последняя кровь Скачать торрент  

фильм полное ! Рэмбо давно уже не тот! жальпотраченного времени!pb.wtf



18-12-2019 11:02 Рэмбо: Последняя кровь Скачать торрент  

Племяшку жалко...
Филмец УГ конечно полное...pb.wtf



21-12-2019 18:29 Рэмбо: Последняя кровь Скачать торрент  

деду кушать хочется ,но мозги не те ,поэтому только педалирование успешных в прошлом направленийpb.wtf



    Дорогой пользователь! Огромная просьба, поблагодарите релизера, оцените раздачу и оставьте свои комментарий, если Вы скачали Рэмбо: Последняя кровь через торрент бесплатно!
    Комментировать посты могут только пользователи прошедшие не сложную регистрацию
    Показать сообщения:    

    Рэмбо: Последняя кровь через торрент
    Скачать бесплатно Рэмбо: Последняя кровь
    Рэмбо: Последняя кровь скачать торрент
    Рэмбо: Последняя кровь смотреть онлайн
    Cкачать фильм Рэмбо: Последняя кровь бесплатно
    Рэмбо: Последняя кровь скачать торрент в хорошем качестве
    Рэмбо: Последняя кровь смотреть онлайн бесплатно в хорошем качестве


    Вы не можете начинать темы
    Вы не можете отвечать на сообщения
    Вы не можете редактировать свои сообщения
    Вы не можете удалять свои сообщения
    Вы не можете голосовать в опросах
    Вы не можете прикреплять файлы к сообщениям
    Вы можете скачивать файлы