Ссылка на приватное зеркало нашего сайта всего за 1$. Внимание количество ограничено!!!

2 сезон

iTunes

1 сезон

1

2 сезон

2 сезон

iTunes

1 сезон

RePack

30

Ultimate

ВАЖНО

ИГРА 18+

pack

RePack

MK11
pack

Забери бонус

RePack

jed

!!Акция!!

Alien_Rage

RePack

fifa19

RePack

Assassins Creed: Odyssey

RePack

NEED FOR SPEED™ PAYBACK

4 сезон

9 сезон

Бесстыжие 9 сезон

Все сериалы

все сериалы на PB.wtf

RePack

FAR CRY 5
  

Визит инспектора / An Inspector Calls (Эшлин Уолш) [2015, триллер, драма, WEB-DL 1080p] [MVO] (FocusStudio) pb.wtf

Визит инспектора через торрент pb.wtf

Размер: 6.47 GB | Добавлен: 11 мес. назад | Торрент скачан:70 раз
Скачать  

08-12-2019 20:02 Визит инспектора Скачать торрент  


Визит инспектора / An Inspector Calls


ИНФОРМАЦИЯ:
Год выпуска:2015
Страна: Великобритания
Жанр: триллер, драма
Продолжительность: 01:26:17
Перевод: Профессиональный (многоголосый) *FocusStudio*
Режиссер: Эшлин Уолш

В Ролях:


Софи Рандл (Eva), Люси Чаппель (Edna), Миранда Ричардсон (Sybil Birling), Кен Стотт (Arthur Birling), Финн Коул (Eric Birling), Хлоя Пирри (Sheila Birling), Кайл Соллер (Gerald Croft), Дэвид Тьюлис (The Inspector), Флора Николсон (Miss Francis), Гари Дэвис (Alderman Meggarty), Wanda Opalinska (Charity Lady), Филип Гаскойн (Millward's Shop Customer, в титрах не указан)

Описание:
События фильма разворачиваются в огромном особняке Артура Берлинга, крупного промышленника. Вся семья собирается в доме, чтобы устроить праздничный ужин. Но идиллию разрушает визит инспектора полиции Гула, расследующего подозрительное самоубийство девушки по имени Ева Смит. Гул подозревает в причастности к случившемуся не только Артура, но и остальных собравшихся за столом, и сразу заявляет, что намерен побеседовать с каждым… Экранизация пьесы английского драматурга Джона Бойтона Пристли.

скриншот  
ТЕХ.ДАННЫЕ:
Качество: WEB-DL (1080p)
Формат: MKV
Видео: 1920x1080, 25 fps, AVC, 9443 kbps
Аудио №1: 48 kHz, AC3 Dolby Digital, 3/2 (L,C,R,l,r) + LFE ch, 640.00 kbps / Russian
Аудио №2: 48 kHz, AC3 Dolby Digital, 3/2 (L,C,R,l,r) + LFE ch, 640.00 kbps


Общее
Уникальный идентификатор : 196728616023924121612624402131888670696 (0x94008DA1E982EE3F917691F49CE887E8)
Полное имя : I:\Закачки\Готовые\An.Inspector.Calls.WEB-DL.1080p.FocusX.mkv
Формат : Matroska
Версия формата : Version 4
Размер файла : 6,47 Гбайт
Продолжительность : 1 ч. 26 м.
Режим общего битрейта : Постоянный
Общий поток : 10,7 Мбит/сек
Название фильма : An Inspector Calls @ FocusX
Дата кодирования : UTC 2019-12-04 14:27:27
Программа кодирования : mkvmerge v8.1.0 ('Psychedelic Postcard') 64bit
Библиотека кодирования : libebml v1.3.1 + libmatroska v1.4.2

Видео
Идентификатор : 1
Формат : AVC
Формат/Информация : Advanced Video Codec
Профиль формата : High@L4
Настройки формата : CABAC / 4 Ref Frames
Параметр CABAC формата : Да
Параметр RefFrames формата : 4 кадра
Идентификатор кодека : V_MPEG4/ISO/AVC
Продолжительность : 1 ч. 26 м.
Вид битрейта : Постоянный
Битрейт : 9232 Кбит/сек
Номинальный битрейт : 10000 Кбит/сек
Ширина : 1920 пикселей
Высота : 1080 пикселей
Соотношение сторон : 16:9
Режим частоты кадров : Постоянный
Частота кадров : 25,000 кадров/сек
Цветовое пространство : YUV
Субдискретизация насыщенности : 4:2:0
Битовая глубина : 8 бит
Тип развёртки : Прогрессивная
Бит/(Пиксели*Кадры) : 0.178
Размер потока : 5,57 Гбайт (86%)
Default : Да
Forced : Нет
Цветовой диапазон : Limited
Основные цвета : BT.709
Характеристики трансфера : BT.709
Коэффициенты матрицы : BT.709

Аудио #1
Идентификатор : 2
Формат : AC-3
Формат/Информация : Audio Coding 3
Коммерческое название : Dolby Digital
Идентификатор кодека : A_AC3
Продолжительность : 1 ч. 26 м.
Вид битрейта : Постоянный
Битрейт : 640 Кбит/сек
Каналы : 6 каналов
ChannelLayout : L R C LFE Ls Rs
Частота : 48,0 КГц
Частота кадров : 31,250 кадров/сек (1536 SPF)
Метод сжатия : С потерями
Размер потока : 395 Мбайт (6%)
Заголовок : MVO FocusX
Язык : Russian
ServiceKind/String : Complete Main
Default : Да
Forced : Нет

Аудио #2
Идентификатор : 3
Формат : AC-3
Формат/Информация : Audio Coding 3
Коммерческое название : Dolby Digital
Идентификатор кодека : A_AC3
Продолжительность : 1 ч. 26 м.
Вид битрейта : Постоянный
Битрейт : 640 Кбит/сек
Каналы : 6 каналов
ChannelLayout : L R C LFE Ls Rs
Частота : 48,0 КГц
Частота кадров : 31,250 кадров/сек (1536 SPF)
Метод сжатия : С потерями
Размер потока : 395 Мбайт (6%)
Язык : English
ServiceKind/String : Complete Main
Default : Нет
Forced : Нет
скриншот  скриншот  скриншот  
pb.wtf



Скачать Визит инспектора через торрент http://pic.kartinco.top/images/6/ordi9.jpg Скачать фильм Визит инспектора через торрент бесплантно в хорошем качестве Описание: События фильма разворачиваются в огромном особняке Артура Берлинга, крупного промышленника. Вся семья собирается в доме, чтобы ... 10 10 3
Торрент: Зарегистрирован [2019-12-08 20:02] · скачан: 70 раз
Статус: √ проверено
Размер: 6.47 GB
Как cкачать? Как скачать Визит инспектора через торрент | qTorrent

% Раздел Тема Автор DL S | L
Фильмы 2015 [DVDrip, WEB-DLRip, HDrip] [ 1.46 GB ] Визит инспектора / An Inspector Calls [2015 WEB-DLRip] [MVO] killermax2013 Скачать
2 | 0

28-11-2019 20:33  

Отключить всю рекламу на сайте

    Дорогой пользователь! Огромная просьба, поблагодарите релизера, оцените раздачу и оставьте свои комментарий, если Вы скачали Визит инспектора через торрент бесплатно! Внесите свою лепту в развитие PiratBit!
    Комментировать посты могут только пользователи прошедшие не сложную регистрацию
    Показать сообщения:    

    Визит инспектора через торрент
    Скачать бесплатно Визит инспектора
    Визит инспектора скачать торрент
    Визит инспектора смотреть онлайн
    Cкачать фильм Визит инспектора бесплатно
    Визит инспектора скачать торрент в хорошем качестве
    Визит инспектора смотреть онлайн бесплатно в хорошем качестве


    Вы не можете начинать темы
    Вы не можете отвечать на сообщения
    Вы не можете редактировать свои сообщения
    Вы не можете удалять свои сообщения
    Вы не можете голосовать в опросах
    Вы не можете прикреплять файлы к сообщениям
    Вы можете скачивать файлы