Ссылка на приватное зеркало нашего сайта всего за 1$. Внимание количество ограничено!!!

2 сезон

iTunes

1 сезон

1

iTunes

iTunes

iTunes

1 сезон

RePack

30

ИГРА 18+

pack

ВАЖНО

!!Акция!!

Alien_RageХит недели

RePack

MK11
pack

Забери бонус

RePack

jed

!!Акция!!

Alien_Rage

RePack

fifa19

RePack

Assassins Creed: Odyssey

RePack

NEED FOR SPEED™ PAYBACK

4 сезон

9 сезон

Бесстыжие 9 сезон

Все сериалы

все сериалы на PB.wtf

RePack

FAR CRY 5
  

Прошу поверить мне на слово / Серии: 1-4 из 4 (Феликс Герчиков) [2015, Мелодрама, HDTVRip 720p] pb.wtf

Прошу поверить мне на слово через торрент pb.wtf

Размер: 5.96 GB | Добавлен: 10 мес. назад | Торрент скачан:7 раз
Скачать  

08-12-2019 20:21 Прошу поверить мне на слово Скачать торрент  

Прошу поверить мне на слово Год выпуска: 2015
Страна: Россия
Жанр: Мелодрама
Продолжительность: ~ 00:50:00 серия
Перевод: Не требуется
Субтитры: отсутствуют

Режиссер: Феликс Герчиков



В ролях: Татьяна Черкасова, Татьяна Чердынцева, Алексей Барабаш, Андрей Егоров, Евгения Дмитриева, Михаил Стародубов, Ёла Санько, Ян Цапник, Галина Польских, Кирилл Полухин

Описание: Екатерина Суворова взяла на себя чужую вину. Зачем и почему? Вопрос, на который она не хочет дать ответ. Цена за такое решение слишком высока — разлука с дочерью и тяжелый путь обратно в свою жизнь.

Качество: HDTVRip 720p
Формат: MKV

Видео: 1280х720 (16:9), 25 fps, AVC MPEG-4 (x264), High@L4.1 4000 kbps , 0.152 bit/pixel
Аудио: 48 kHz, AC3, 2 ch, ~ 192 kbps avg
скриншот  скриншот  скриншот  скриншот  

Общее
Уникальный идентификатор : 217323447107702800587905695778488557890 (0xA37EF93360CD1CF79F8A5113CBADA142)
Полное имя : D:\Proshu.poverit.mne.na.slovo.2015.HDTVRip.(720p).Nikolspup\Proshu.poverit.mne.na.slovo.(01.seriya.iz.04).2015.HDTVRip.(720p).Nikolspup.mkv
Формат : Matroska
Версия формата : Version 4 / Version 2
Размер файла : 1,51 Гбайт
Продолжительность : 51 м. 36 с.
Общий поток : 4194 Кбит/сек
Дата кодирования : UTC 2019-01-19 13:30:27
Программа кодирования : mkvmerge v7.8.0 ('River Man') 32bit built on Mar 27 2015 16:18:02
Библиотека кодирования : libebml v1.3.1 + libmatroska v1.4.2

Видео
Идентификатор : 1
Формат : AVC
Формат/Информация : Advanced Video Codec
Профиль формата : High@L4.1
Параметр CABAC формата : Да
Параметр RefFrames формата : 9 кадров
Идентификатор кодека : V_MPEG4/ISO/AVC
Продолжительность : 51 м. 36 с.
Битрейт : 4000 Кбит/сек
Ширина : 1280 пикселей
Высота : 720 пикселей
Соотношение сторон : 16:9
Режим частоты кадров : Постоянный
Частота кадров : 25,000 кадров/сек
Цветовое пространство : YUV
Субдискретизация насыщенности : 4:2:0
Битовая глубина : 8 бит
Тип развёртки : Прогрессивная
Бит/(Пиксели*Кадры) : 0.174
Размер потока : 1,41 Гбайт (93%)
Библиотека кодирования : x264 core 146 r2538 121396c
Настройки программы : cabac=1 / ref=9 / deblock=1:-2:-1 / analyse=0x3:0x133 / me=umh / subme=9 / psy=1 / psy_rd=1.00:0.20 / mixed_ref=1 / me_range=32 / chroma_me=1 / trellis=2 / 8x8dct=1 / cqm=0 / deadzone=21,11 / fast_pskip=1 / chroma_qp_offset=-3 / threads=12 / lookahead_threads=8 / sliced_threads=0 / nr=0 / decimate=1 / interlaced=0 / bluray_compat=0 / constrained_intra=0 / bframes=11 / b_pyramid=2 / b_adapt=2 / b_bias=0 / direct=1 / weightb=1 / open_gop=0 / weightp=2 / keyint=250 / keyint_min=25 / scenecut=40 / intra_refresh=0 / rc=2pass / mbtree=0 / bitrate=4000 / ratetol=1.0 / qcomp=0.60 / qpmin=0 / qpmax=69 / qpstep=4 / cplxblur=20.0 / qblur=0.5 / ip_ratio=1.40 / pb_ratio=1.30 / aq=3:1.00
Default : Нет
Forced : Нет
Цветовой диапазон : Limited
Основные цвета : BT.709
Характеристики трансфера : BT.709
Коэффициенты матрицы : BT.709

Аудио
Идентификатор : 2
Формат : AC-3
Формат/Информация : Audio Coding 3
Расширение режима : CM (complete main)
Параметр Endianness формата : Big
Идентификатор кодека : A_AC3
Продолжительность : 51 м. 36 с.
Вид битрейта : Постоянный
Битрейт : 192 Кбит/сек
Каналы : 2 канала
Расположение каналов : Front: L R
Частота : 48,0 КГц
Частота кадров : 31,250 кадров/сек (1536 spf)
Метод сжатия : С потерями
Размер потока : 70,9 Мбайт (5%)
Язык : Russian
Default : Да
Forced : Да

pb.wtf



Скачать Прошу поверить мне на слово через торрент https://i79.fastpic.ru/big/2016/0630/21/8d4c97b89f9cd3aaf0abc031925ef221.png Скачать фильм Прошу поверить мне на слово через торрент бесплантно в хорошем качестве Описание: Екатерина Суворова взяла на себя чужую вину. Зачем и почему? Вопрос, на который она не хочет дать ответ. Цена за такое решение ... 10 10 2
Торрент: Зарегистрирован [2019-12-08 20:21] · скачан: 7 раз
Статус: √ проверено
Размер: 5.96 GB
Как cкачать? Как скачать Прошу поверить мне на слово через торрент | qTorrent

% Раздел Тема Автор DL S | L
Наши сериалы [ 2.34 GB ] Прошу поверить мне на слово / Серии: 1-4 из 4 [2015 Мело HDTVRip] bober100 Скачать
1 | 0
Наши сериалы [ 12.75 GB ] Прошу поверить мне на слово / Серии: 1-4 из 4 [2015 Мело HDTV 1080i] bober100 Скачать
1 | 0

28-11-2019 20:33  

Отключить всю рекламу на сайте

    Дорогой пользователь! Огромная просьба, поблагодарите релизера, оцените раздачу и оставьте свои комментарий, если Вы скачали Прошу поверить мне на слово через торрент бесплатно! Внесите свою лепту в развитие PiratBit!
    Комментировать посты могут только пользователи прошедшие не сложную регистрацию
    Показать сообщения:    

    Прошу поверить мне на слово через торрент
    Скачать бесплатно Прошу поверить мне на слово
    Прошу поверить мне на слово скачать торрент
    Прошу поверить мне на слово смотреть онлайн
    Cкачать фильм Прошу поверить мне на слово бесплатно
    Прошу поверить мне на слово скачать торрент в хорошем качестве
    Прошу поверить мне на слово смотреть онлайн бесплатно в хорошем качестве


    Вы не можете начинать темы
    Вы не можете отвечать на сообщения
    Вы не можете редактировать свои сообщения
    Вы не можете удалять свои сообщения
    Вы не можете голосовать в опросах
    Вы не можете прикреплять файлы к сообщениям
    Вы можете скачивать файлы