Ссылка на приватное зеркало всего за 1$. Внимание количество ограничено!!!

OK

1+1

iTunes

мы

OK

1

WEB-DLRip

Джокер

Пифагор

Ведьмак / The Witcher сериал

iTunes

ПШазам

ОК

Оно 2

iTunes

30
pack

Вам бонус

ВАЖНО

!!Акция!!

Alien_RageХит недели

RePack

Resident Evil 21

ИГРА 18+

pack

RePack

jed

RePack

fifa19

RePack

Assassins Creed: Odyssey

RePack

NEED FOR SPEED™ PAYBACK

4 сезон

9 сезон

Бесстыжие 9 сезон

Все сериалы

все сериалы на PB.wtf

RePack

FAR CRY 5
  

Нигде в Африке / Nirgendwo in Afrika (Каролина Линк) [2001, драма, биография, BDRip 720p by msltel] MVO pb.wtf

Нигде в Африке через торрент pb.wtf

Размер: 5.34 GB | Добавлен: 1 мес. 16 д. назад | Торрент скачан:14 раз
Скачать  

09-12-2019 05:28 Нигде в Африке Скачать торрент  

Название: Нигде в Африке
Оригинальное название: Nirgendwo in Afrika
Год выпуска: 2001
Страна: Германия
Жанр: драма, биография
Продолжительность: 02:21:16
Перевод: профессиональный многоголосый

Режиссер: Каролина Линк
В ролях: Юлиане Кёлер, Мераб Нинидзе, Сидеде Оньюло, Матиас Хабих, Леа Курка, Герд Хайнц, Хильдегард Шмаль, Реджин Зиммерманн, Каролина Эккерц, Маритта Хорварт, Беттина Редлих, Джулия Лайдль, Мехтильд Гроссманн, Джоэль Вайсберг, Мириам Вайсберг, Питер Ланеку, Силас Керати, Энди Рэшли, Энтони Бейт, Дайан Кин, Эндрю Сакс

О фильме: В 1938 году Йеттель Редлих с пятилетней дочерью Региной едва успевают бежать из Германии в Африку, где уже обосновался их муж и отец Вальтер. После цивилизованной Европы Вальтер и Йеттель не сразу свыкаются с тем, что неопределённое время они должны будут провести на отдалённой ферме в Кении, борясь за выживание среди опалённой солнцем саванны. Но, как и всякий ребёнок, Регина быстро привыкает к новым условиям, выучивает язык и заводит дружбу с местными детьми. Красота Чёрного континента приводит её в неописуемый восторг, постепенно передающийся её родителям. Они всё больше привыкают к Африке, несмотря на суровые условия существования. Но война настигает семью Редлихов и здесь. Они узнают, что все их родственники, оставшиеся в Германии, погибли в концлагерях... Фильм снят по автобиографическому роману немецкой писательницы Стефани Цвейг.



Качество: BDRip 720p
Формат: MKV
Видео: MPEG-4 AVC, 4773 Кбит/с, 1280x544
Аудио 1: русский, AC3, 192 kbps, 2 ch, 48 kHz [закадровый многоголосый, R5 Екатеринбург Арт]
Аудио 2: немецкий, AC3, 448 kbps, 6 ch, 48 kHz [оригинал]
Субтитры 1: русские
Субтитры 2: немецкие
Субтитры 3: английские
Немецкие хардсабы на речь, отличную от немецкой.
Главы/чаптеры
Общее
Уникальный идентификатор : 248956953545149682056002379581515893330 (0xBB4B5D7BC14C919CAB53628010180A52)
Полное имя : D:\Video\Нигде в Африке.2001.BDRip 720p by msltel.mkv
Формат : Matroska
Версия формата : Version 4
Размер файла : 5,34 Гбайт
Продолжительность : 2 ч. 21 м.
Общий поток : 5415 Кбит/сек
Название фильма : Rip by msltel
Дата кодирования : UTC 2019-12-09 02:22:03
Программа кодирования : mkvmerge v8.2.0 ('World of Adventure') 64bit
Библиотека кодирования : libebml v1.3.1 + libmatroska v1.4.2

Видео
Идентификатор : 1
Формат : AVC
Формат/Информация : Advanced Video Codec
Профиль формата : High@L4.1
Настройки формата : CABAC / 9 Ref Frames
Параметр CABAC формата : Да
Параметр RefFrames формата : 9 кадров
Идентификатор кодека : V_MPEG4/ISO/AVC
Продолжительность : 2 ч. 21 м.
Битрейт : 4773 Кбит/сек
Ширина : 1280 пикселей
Высота : 544 пикселя
Соотношение сторон : 2,35:1
Режим частоты кадров : Постоянный
Частота кадров : 24,000 кадра/сек
Цветовое пространство : YUV
Субдискретизация насыщенности : 4:2:0
Битовая глубина : 8 бит
Тип развёртки : Прогрессивная
Бит/(Пиксели*Кадры) : 0.286
Размер потока : 4,71 Гбайт (88%)
Библиотека кодирования : x264 core 157 r2935 545de2f
Настройки программы : cabac=1 / ref=9 / deblock=1:-2:-2 / analyse=0x3:0x113 / me=umh / subme=11 / psy=1 / psy_rd=1.00:0.15 / mixed_ref=1 / me_range=32 / chroma_me=1 / trellis=2 / 8x8dct=1 / cqm=0 / deadzone=21,11 / fast_pskip=0 / chroma_qp_offset=-3 / threads=6 / lookahead_threads=1 / sliced_threads=0 / nr=0 / decimate=1 / interlaced=0 / bluray_compat=0 / constrained_intra=0 / bframes=12 / b_pyramid=2 / b_adapt=2 / b_bias=0 / direct=1 / weightb=1 / open_gop=0 / weightp=2 / keyint=230 / keyint_min=23 / scenecut=40 / intra_refresh=0 / rc_lookahead=40 / rc=crf / mbtree=0 / crf=17.5 / qcomp=0.60 / qpmin=0 / qpmax=69 / qpstep=4 / vbv_maxrate=50000 / vbv_bufsize=62500 / crf_max=0.0 / nal_hrd=none / filler=0 / ip_ratio=1.40 / pb_ratio=1.30 / aq=1:1.00
Язык : German
Default : Да
Forced : Нет

Аудио #1
Идентификатор : 2
Формат : AC-3
Формат/Информация : Audio Coding 3
Коммерческое название : Dolby Digital
Идентификатор кодека : A_AC3
Продолжительность : 2 ч. 21 м.
Вид битрейта : Постоянный
Битрейт : 192 Кбит/сек
Каналы : 2 канала
ChannelLayout : L R
Частота : 48,0 КГц
Частота кадров : 31,250 кадров/сек (1536 SPF)
Метод сжатия : С потерями
Размер потока : 194 Мбайт (4%)
Заголовок : MVO R5 Екатеринбург Арт
Язык : Russian
ServiceKind/String : Complete Main
Default : Да
Forced : Нет

Аудио #2
Идентификатор : 3
Формат : AC-3
Формат/Информация : Audio Coding 3
Коммерческое название : Dolby Digital
Идентификатор кодека : A_AC3
Продолжительность : 2 ч. 21 м.
Вид битрейта : Постоянный
Битрейт : 448 Кбит/сек
Каналы : 6 каналов
ChannelLayout : L R C LFE Ls Rs
Частота : 48,0 КГц
Частота кадров : 31,250 кадров/сек (1536 SPF)
Метод сжатия : С потерями
Размер потока : 453 Мбайт (8%)
Заголовок : original
Язык : German
ServiceKind/String : Complete Main
Default : Нет
Forced : Нет

Текст #1
Идентификатор : 4
Формат : UTF-8
Идентификатор кодека : S_TEXT/UTF8
Идентификатор кодека/Информация : UTF-8 Plain Text
Продолжительность : 2 ч. 16 м.
Битрейт : 80 бит/сек
ElementCount : 1581
Размер потока : 80,8 Кбайт (0%)
Заголовок : русские
Язык : Russian
Default : Нет
Forced : Нет

Текст #2
Идентификатор : 5
Формат : UTF-8
Идентификатор кодека : S_TEXT/UTF8
Идентификатор кодека/Информация : UTF-8 Plain Text
Продолжительность : 2 ч. 16 м.
Битрейт : 38 бит/сек
ElementCount : 856
Размер потока : 38,7 Кбайт (0%)
Заголовок : немецкие
Язык : German
Default : Нет
Forced : Нет

Текст #3
Идентификатор : 6
Формат : UTF-8
Идентификатор кодека : S_TEXT/UTF8
Идентификатор кодека/Информация : UTF-8 Plain Text
Продолжительность : 2 ч. 16 м.
Битрейт : 46 бит/сек
ElementCount : 1234
Размер потока : 46,3 Кбайт (0%)
Заголовок : английские
Язык : English
Default : Нет
Forced : Нет

Меню
00:00:00.000 : en:00:00:00.000
00:10:57.625 : en:00:10:57.625
00:22:43.000 : en:00:22:43.000
00:35:16.166 : en:00:35:16.166
00:47:19.750 : en:00:47:19.750
00:59:15.708 : en:00:59:15.708
01:13:52.541 : en:01:13:52.541
01:21:49.250 : en:01:21:49.250
01:34:00.625 : en:01:34:00.625
01:46:50.582 : en:01:46:50.582
01:58:46.250 : en:01:58:46.250
02:09:43.875 : en:02:09:43.875
pb.wtf



Скачать Нигде в Африке через торрент https://a.radikal.ru/a36/1912/5c/769624a63351.jpg Скачать фильм Нигде в Африке через торрент бесплантно в хорошем качестве О фильме: В 1938 году Йеттель Редлих с пятилетней дочерью Региной едва успевают бежать из Германии в Африку, где уже обосновался их муж и ... 2 10 1
Торрент: Зарегистрирован [2019-12-09 05:28] · скачан: 14 раз
Статус: √ проверено
Размер: 5.34 GB
Как cкачать? Как скачать Нигде в Африке через торрент | qTorrent

% Раздел Тема Автор DL S | L
Фильмы [HD 720p, 1080p] (Хороший звук DUB, MVO) [ 14.68 GB ] Нигде в Африке / Nirgendwo in Afrika [2001 биография BDRip 1080p by msltel] MVO msltel Скачать
1 | 0
Фильмы 2001-2005 [ 3.15 GB ] Нигде в Африке / Nirgendwo in Afrika [2001 биография BDRip by msltel] MVO msltel Скачать
1 | 0

28-11-2019 20:33  

Отключить всю рекламу на сайте

09-12-2019 09:08 Нигде в Африке Скачать торрент  

Нигер в Африке.pb.wtf



    Дорогой пользователь! Огромная просьба, поблагодарите релизера, оцените раздачу и оставьте свои комментарий, если Вы скачали Нигде в Африке через торрент бесплатно! Внесите свою лепту в развитие PiratBit!
    Комментировать посты могут только пользователи прошедшие не сложную регистрацию
    Показать сообщения:    

    Нигде в Африке через торрент
    Скачать бесплатно Нигде в Африке
    Нигде в Африке скачать торрент
    Нигде в Африке смотреть онлайн
    Cкачать фильм Нигде в Африке бесплатно
    Нигде в Африке скачать торрент в хорошем качестве
    Нигде в Африке смотреть онлайн бесплатно в хорошем качестве


    Вы не можете начинать темы
    Вы не можете отвечать на сообщения
    Вы не можете редактировать свои сообщения
    Вы не можете удалять свои сообщения
    Вы не можете голосовать в опросах
    Вы не можете прикреплять файлы к сообщениям
    Вы можете скачивать файлы