Ссылка на приватное зеркало нашего сайта всего за 1$. Внимание количество ограничено!!!

2 сезон

iTunes

1 сезон

1

iTunes

iTunes

iTunes

1 сезон

RePack

30

ИГРА 18+

pack

ВАЖНО

!!Акция!!

Alien_RageХит недели

RePack

MK11
pack

Забери бонус

RePack

jed

!!Акция!!

Alien_Rage

RePack

fifa19

RePack

Assassins Creed: Odyssey

RePack

NEED FOR SPEED™ PAYBACK

4 сезон

9 сезон

Бесстыжие 9 сезон

Все сериалы

все сериалы на PB.wtf

RePack

FAR CRY 5
  

Вызываем огонь на себя (Сергей Колосов) [1964, СССР, драма, военный, SATRip-AVC от AVP Studio] pb.wtf

Вызываем огонь на себя через торрент pb.wtf

Раздают: 3 [ 0 KB/s ]
Размер: 4.37 GB | Добавлен: 10 мес. назад | Торрент скачан:21 раз
Скачать  

09-12-2019 08:11 Вызываем огонь на себя Скачать торрент  

Вызываем огонь на себя
Страна: СССР
Производство: Мосфильм, творческое объединение "Экран" по заказу ЦТ

Жанр: драма, военный
Год выпуска: 1964
Продолжительность: 05:09:30 (01:31:36 + 01:11:49 + 01:21:22 + 01:04:43)

Перевод: Не требуется
Cубтитры: нет
Оригинальная аудиодорожка: русский

Режиссер: Сергей Колосов

В ролях:
Людмила Касаткина, Изольда Извицкая, Елена Королёва, Александр Лазарев (ст.), Станислав Чекан, Ролан Быков, Олег Ефремов, Павел Пацл, Евгений Шутов, Анна Павлова (IV), Валентина Беляева, Ада Войцик, Нина Крачковская, Вильгельм Косач, Борис Чирков, Владимир Осенев, Эрвин Кнаусмюллер, Александр Александровский, И. Мюллер, Л. Шумахер, Э. Деринг, Юзеф Дуряш, Мариан Коциняк...
Об актёрах подробней

Описание:
Группе советских подпольщиков, которыми руководит разведчица Анна Морозова, удается установить связь с поляками, работающими на немецком аэродроме. Ежечасно рискуя жизнью, группа готовит и успешно осуществляет сбор разведывательных данных и серию диверсионных актов. За эту важную, хоть и небольшую в масштабах войны победу приходится заплатить дорогой ценой…

Исходник: DVB
Качество видео: SATRip-AVC
Формат видео: MKV

Видео: 704->760х570 (4:3), 25,000 fps, H264 ~ 1826 kbps avg, 0.182 bit/pixel
Аудио: 48 kHz, Dolby Digital AC3 2.0, 192 kbps

Раздача от:
Общее
Полное имя : Vyzyvaem.ogon.na.sebya.1964.SATRip-AVC_[New-team]_by_AVP_Studio
Формат : Matroska
Версия формата : Version 2
Размер файла : 1,29 Гбайт
Продолжительность : 1 ч. 31 м.
Общий поток : 2019 Кбит/сек
Дата кодирования : UTC 2019-12-04 12:51:46
Программа кодирования : mkvmerge v6.1.0 ('Old Devil') built on Mar 4 2013 09:10:42
Библиотека кодирования : libebml v1.3.0 + libmatroska v1.4.0

Видео
Идентификатор : 1
Формат : AVC
Формат/Информация : Advanced Video Codec
Профиль формата : High@L4.1
Настройки формата : CABAC / 10 Ref Frames
Параметр CABAC формата : Да
Параметр RefFrames формата : 10 кадров
Идентификатор кодека : V_MPEG4/ISO/AVC
Продолжительность : 1 ч. 31 м.
Битрейт : 1826 Кбит/сек
Ширина : 704 пикселя
Высота : 570 пикселей
Соотношение сторон : 4:3
Режим частоты кадров : Постоянный
Частота кадров : 25,000 кадров/сек
Цветовое пространство : YUV
Субдискретизация насыщенности : 4:2:0
Битовая глубина : 8 бит
Тип развёртки : Прогрессивная
Бит/(Пиксели*Кадры) : 0.182
Размер потока : 1,14 Гбайт (89%)
Библиотека кодирования : x264 core 157 r2932 303c484
Настройки программы : cabac=1 / ref=10 / deblock=1:-2:-1 / analyse=0x3:0x113 / me=umh / subme=10 / psy=1 / psy_rd=1.00:0.00 / mixed_ref=1 / me_range=32 / chroma_me=1 / trellis=2 / 8x8dct=1 / cqm=0 / deadzone=21,11 / fast_pskip=1 / chroma_qp_offset=-2 / threads=6 / lookahead_threads=1 / sliced_threads=0 / nr=0 / decimate=0 / interlaced=0 / bluray_compat=0 / constrained_intra=0 / bframes=8 / b_pyramid=2 / b_adapt=2 / b_bias=0 / direct=3 / weightb=1 / open_gop=0 / weightp=2 / keyint=250 / keyint_min=25 / scenecut=40 / intra_refresh=0 / rc=2pass / mbtree=0 / bitrate=1826 / ratetol=1.0 / qcomp=0.60 / qpmin=0 / qpmax=69 / qpstep=4 / cplxblur=20.0 / qblur=0.5 / ip_ratio=1.40 / pb_ratio=1.30 / aq=1:1.00
Default : Да
Forced : Нет

Аудио
Идентификатор : 2
Формат : AC-3
Формат/Информация : Audio Coding 3
Коммерческое название : Dolby Digital
Идентификатор кодека : A_AC3
Продолжительность : 1 ч. 31 м.
Вид битрейта : Постоянный
Битрейт : 192 Кбит/сек
Каналы : 2 канала
ChannelLayout : L R
Частота : 48,0 КГц
Частота кадров : 31,250 кадров/сек (1536 SPF)
Битовая глубина : 16 бит
Метод сжатия : С потерями
Размер потока : 126 Мбайт (10%)
Default : Да
Forced : Нет
pb.wtf



Скачать Вызываем огонь на себя через торрент http://d.radikal.ru/d26/1912/2f/5a2f11f7f6f2.png Скачать фильм Вызываем огонь на себя через торрент бесплантно в хорошем качестве Описание:Группе советских подпольщиков, которыми руководит разведчица Анна Морозова, удается установить связь с поляками, работающими на ... 5 10 1
Торрент: Зарегистрирован [2019-12-09 08:11] · скачан: 21 раз
Статус: √ проверено
Размер: 4.37 GB
Как cкачать? Как скачать Вызываем огонь на себя через торрент | qTorrent

% Раздел Тема Автор DL S | L
Кино СССР [ 4.37 GB ] Вызываем огонь на себя [1964 СССР военный SATRip от AVP Studio] AVP Studio Скачать
1 | 1

28-11-2019 20:33  

Отключить всю рекламу на сайте

09-12-2019 08:26 Вызываем огонь на себя Скачать торрент  

Людмила Касаткина изображена на обложке, а в ролях упомянуть её забыли.pb.wtf



    Дорогой пользователь! Огромная просьба, поблагодарите релизера, оцените раздачу и оставьте свои комментарий, если Вы скачали Вызываем огонь на себя через торрент бесплатно! Внесите свою лепту в развитие PiratBit!
    Комментировать посты могут только пользователи прошедшие не сложную регистрацию
    Показать сообщения:    

    Вызываем огонь на себя через торрент
    Скачать бесплатно Вызываем огонь на себя
    Вызываем огонь на себя скачать торрент
    Вызываем огонь на себя смотреть онлайн
    Cкачать фильм Вызываем огонь на себя бесплатно
    Вызываем огонь на себя скачать торрент в хорошем качестве
    Вызываем огонь на себя смотреть онлайн бесплатно в хорошем качестве


    Вы не можете начинать темы
    Вы не можете отвечать на сообщения
    Вы не можете редактировать свои сообщения
    Вы не можете удалять свои сообщения
    Вы не можете голосовать в опросах
    Вы не можете прикреплять файлы к сообщениям
    Вы можете скачивать файлы