Всегда рабочее зеркало без VPN и Proxy просто перед .vidak.icu напиши любое слово или цифру, Пример http://apkp.vidak.icu

MVO

MVO

1 сезон

1

1 сезон

iTunes

1 сезон

13

1 сезон

Deluxe

pack

Рекомендуем

Repack

30

ВАЖНО

RePack

MK11

RePack

jed

RePack

fifa19

RePack

RDR2

RePack

NEED FOR SPEED™ PAYBACK

Кинопоиск HD

6 сезон

 Острые козырьки 6 сезон

Все сериалы

все сериалы на PB.wtf

RePack

FAR CRY 5
  
Magnet ссылка

Yesterday / Yesterday (Дэнни Бойл) [2019, музыка, мелодрама, фэнтези, UHD BDRemux 2160p] DUB [Лицензия] + AVO [C. Визгунов] pb.wtf

Yesterday через торрент pb.wtf

Размер: 56.23 GB | Добавлен: 2 года 7 мес. назад | Торрент скачан:43 раза
Смотреть онлайн Yesterday | Скачать    Ребята, помогите собрать деньги на оплату серверов!!!

09-12-2019 09:12 Yesterday Скачать торрент  

Yesterday / Yesterday««Мир забыл про The Beatles. Но только не Джек...»»

Год выпуска: 2019
Страна: Великобритания, Россия, Китай, Япония
Жанр: музыка, мелодрама, фэнтези, комедия
Продолжительность: 01:56:14
Перевод 1: Профессиональный (дублированный) Blu-Ray
Перевод 2: Авторский (одноголосый закадровый) C. Визгунов
Субтитры: русские (forced, full, FOCS), английские (full, SDH)

Режиссер: Дэнни Бойл
В ролях:

Химеш Патель (Jack Malik), Лили Джеймс (Ellie Appleton), Джоэль Фрай (Rocky), Эд Ширан (Ed Sheeran), Кейт МакКиннон (Debra Hammer), Мира Сайал (Sheila Malik), Санджив Бхаскар (Jed Malik), Софи Ди Мартино (Carol), Эллиз Шаппелль (Lucy), Гарри Мишель (Nick), Винсент Франклин (Brian), Майкл Киванука (Michael Kiwanuka)
Описание:
Ещё месяц назад Джек был обычным неудачником. Теперь он суперзвезда, миллионы людей слушают его песни, билеты на концерты раскупаются за секунду. В чём секрет? Всё просто. Джек - единственный человек в мире, кто помнит о существовании The Beatles.
Рейтинг:

MPAA: PG-13 - Детям до 13 лет просмотр не желателен
Качество: UHD BDRemux 2160p
Формат: MKV
Видео: MPEG-H HEVC Video / 60357 kbps / 3840x2160 / 23.976 fps / 16:9 / Main 10 @ Level 5.1 @ High / 4:2:0 / 10 bits / HDR10+ / BT.2020 /
Аудио 1: Russian AC3 / 5.1 / 48 kHz / 640 kbps |Dub, Blu-Ray|
Аудио 2: Russian DTS-HD Master Audio / 5.1 / 48 kHz / 4278 kbps / 24 bits (DTS Core: 5.1 / 48 kHz / 1509 kbps / 24 bits) |C. Визгунов|
Аудио 3: English Dolby TrueHD/Atmos Audio / 7.1-Atmos / 48 kHz / 3720 kbps / 24-bit |original|
Аудио 4: English AC3 Core: 5.1 / 48 kHz / 448 kbps |original|
Аудио 5: English AC3 / 2.0 / 48 kHz / 192 kbps |Commentary by director Danny Boyle and writer/producer Richard Curtis|
Навигация по главам: есть

Общее
Уникальный идентификатор : 181723696131751244747355038360337467063 (0x88B6B5F6E3BE42A9BFAB4D059DD946B7)
Полное имя : H:\UHD\Вчера.2019.UHD.Blu-Ray.Remux.2160p.mkv
Формат : Matroska
Версия формата : Version 4
Размер файла : 56,2 Гбайт
Продолжительность : 1 ч. 56 м.
Режим общего битрейта : Переменный
Общий поток : 69,3 Мбит/сек
Дата кодирования : UTC 2019-12-03 18:55:49
Программа кодирования : mkvmerge v40.0.0 ('Old Town Road + Pony') 64-bit
Библиотека кодирования : libebml v1.3.9 + libmatroska v1.5.2
Attachments : poster.jpg

Видео
Идентификатор : 1
Формат : HEVC
Формат/Информация : High Efficiency Video Coding
Профиль формата : Main [email protected]@High
HDR_Format/String : SMPTE ST 2094 App 4, Version 1, HDR10+ Profile B compatible
Идентификатор кодека : V_MPEGH/ISO/HEVC
Продолжительность : 1 ч. 56 м.
Битрейт : 60,4 Мбит/сек
Ширина : 3840 пикселей
Высота : 2160 пикселей
Соотношение сторон : 16:9
Режим частоты кадров : Постоянный
Частота кадров : 23,976 (24000/1001) кадра/сек
Цветовое пространство : YUV
Субдискретизация насыщенности : 4:2:0 (Type 2)
Битовая глубина : 10 бит
Бит/(Пиксели*Кадры) : 0.304
Размер потока : 49,0 Гбайт (87%)
Язык : English
Default : Да
Forced : Нет
Цветовой диапазон : Limited
Основные цвета : BT.2020
Характеристики трансфера : PQ
Коэффициенты матрицы : BT.2020 non-constant
MasteringDisplay_ColorPrimaries : Display P3
MasteringDisplay_Luminance : min: 0.0050 cd/m2, max: 1000 cd/m2
MaxCLL : 999 cd/m2
MaxFALL : 125 cd/m2

Аудио #1
Идентификатор : 2
Формат : AC-3
Формат/Информация : Audio Coding 3
Коммерческое название : Dolby Digital
Идентификатор кодека : A_AC3
Продолжительность : 1 ч. 56 м.
Вид битрейта : Постоянный
Битрейт : 640 Кбит/сек
Каналы : 6 каналов
ChannelLayout : L R C LFE Ls Rs
Частота : 48,0 КГц
Частота кадров : 31,250 кадров/сек (1536 SPF)
Метод сжатия : С потерями
Размер потока : 532 Мбайт (1%)
Заголовок : Dub, Blu-Ray
Язык : Russian
ServiceKind/String : Complete Main
Default : Да
Forced : Нет

Аудио #2
Идентификатор : 3
Формат : DTS XLL
Формат/Информация : Digital Theater Systems
Коммерческое название : DTS-HD Master Audio
Идентификатор кодека : A_DTS
Продолжительность : 1 ч. 56 м.
Вид битрейта : Переменный
Битрейт : 4278 Кбит/сек
Каналы : 8 каналов
ChannelLayout : C L R LFE Lb Rb Lss Rss
Частота : 48,0 КГц
Частота кадров : 93,750 кадра/сек (512 SPF)
Битовая глубина : 24 бит
Метод сжатия : Без потерь
Размер потока : 3,47 Гбайт (6%)
Заголовок : С. Визгунов
Язык : Russian
Default : Нет
Forced : Нет

Аудио #3
Идентификатор : 4
Формат : MLP FBA 16-ch
Формат/Информация : Meridian Lossless Packing FBA with 16-channel presentation
Коммерческое название : Dolby TrueHD with Dolby Atmos
Идентификатор кодека : A_TRUEHD
Продолжительность : 1 ч. 56 м.
Вид битрейта : Переменный
Битрейт : 3272 Кбит/сек
Максимальный битрейт : 5664 Кбит/сек
Каналы : 8 каналов
ChannelLayout : L R C LFE Ls Rs Lb Rb
Частота : 48,0 КГц
Частота кадров : 1200,000 кадров/сек (40 SPF)
Метод сжатия : Без потерь
Размер потока : 2,66 Гбайт (5%)
Язык : English
Default : Нет
Forced : Нет
NumberOfDynamicObjects : 11
BedChannelCount/String : 1 канал
BedChannelConfiguration : LFE

Аудио #4
Идентификатор : 5
Формат : AC-3
Формат/Информация : Audio Coding 3
Коммерческое название : Dolby Digital
Идентификатор кодека : A_AC3
Продолжительность : 1 ч. 56 м.
Вид битрейта : Постоянный
Битрейт : 448 Кбит/сек
Каналы : 6 каналов
ChannelLayout : L R C LFE Ls Rs
Частота : 48,0 КГц
Частота кадров : 31,250 кадров/сек (1536 SPF)
Метод сжатия : С потерями
Размер потока : 372 Мбайт (1%)
Язык : English
ServiceKind/String : Complete Main
Default : Нет
Forced : Нет

Аудио #5
Идентификатор : 6
Формат : AC-3
Формат/Информация : Audio Coding 3
Коммерческое название : Dolby Digital
Идентификатор кодека : A_AC3
Продолжительность : 1 ч. 56 м.
Вид битрейта : Постоянный
Битрейт : 192 Кбит/сек
Каналы : 2 канала
ChannelLayout : L R
Частота : 48,0 КГц
Частота кадров : 31,250 кадров/сек (1536 SPF)
Метод сжатия : С потерями
Размер потока : 160 Мбайт (0%)
Заголовок : Commentary by director Danny Boyle and writer/producer Richard Curtis
Язык : English
ServiceKind/String : Complete Main
Default : Нет
Forced : Нет

Текст #1
Идентификатор : 7
Формат : UTF-8
Идентификатор кодека : S_TEXT/UTF8
Идентификатор кодека/Информация : UTF-8 Plain Text
Продолжительность : 1 ч. 47 м.
Битрейт : 13 бит/сек
ElementCount : 204
Размер потока : 10,3 Кбайт (0%)
Заголовок : forced - Songs
Язык : Russian
Default : Да
Forced : Нет

Текст #2
Идентификатор : 8
Формат : UTF-8
Идентификатор кодека : S_TEXT/UTF8
Идентификатор кодека/Информация : UTF-8 Plain Text
Продолжительность : 1 ч. 51 м.
Битрейт : 108 бит/сек
ElementCount : 2093
Размер потока : 88,4 Кбайт (0%)
Заголовок : full
Язык : Russian
Default : Нет
Forced : Нет

Текст #3
Идентификатор : 9
Формат : UTF-8
Идентификатор кодека : S_TEXT/UTF8
Идентификатор кодека/Информация : UTF-8 Plain Text
Продолжительность : 1 ч. 55 м.
Битрейт : 117 бит/сек
ElementCount : 2121
Размер потока : 98,8 Кбайт (0%)
Заголовок : FOCS
Язык : Russian
Default : Нет
Forced : Нет

Текст #4
Идентификатор : 10
Формат : UTF-8
Идентификатор кодека : S_TEXT/UTF8
Идентификатор кодека/Информация : UTF-8 Plain Text
Продолжительность : 1 ч. 55 м.
Битрейт : 78 бит/сек
ElementCount : 2244
Размер потока : 66,3 Кбайт (0%)
Заголовок : full
Язык : English
Default : Нет
Forced : Нет

Текст #5
Идентификатор : 11
Формат : UTF-8
Идентификатор кодека : S_TEXT/UTF8
Идентификатор кодека/Информация : UTF-8 Plain Text
Продолжительность : 1 ч. 55 м.
Битрейт : 86 бит/сек
ElementCount : 2439
Размер потока : 73,0 Кбайт (0%)
Заголовок : SDH
Язык : English
Default : Нет
Forced : Нет

Меню
00:00:00.000 : en:Chapter 01
00:06:16.668 : en:Chapter 02
00:11:19.679 : en:Chapter 03
00:16:13.097 : en:Chapter 04
00:21:28.287 : en:Chapter 05
00:27:04.540 : en:Chapter 06
00:33:31.885 : en:Chapter 07
00:38:55.083 : en:Chapter 08
00:45:53.250 : en:Chapter 09
00:48:17.061 : en:Chapter 10
00:56:24.339 : en:Chapter 11
01:03:47.490 : en:Chapter 12
01:09:16.486 : en:Chapter 13
01:14:17.078 : en:Chapter 14
01:19:04.615 : en:Chapter 15
01:24:10.587 : en:Chapter 16
01:31:51.923 : en:Chapter 17
01:36:00.588 : en:Chapter 18
01:40:03.247 : en:Chapter 19
01:46:51.947 : en:Chapter 20
pb.wtf



Скачать Yesterday через торрент https://d.radikal.ru/d43/1912/60/026cc1c6fd5e.png Скачать, смотреть онлайн Yesterday бесплантно в хорошем качестве Описание: Ещё месяц назад Джек был обычным неудачником. Теперь он суперзвезда, миллионы людей слушают его песни, билеты на концерты ... 10 10 2
Info! Золотая раздача, скачанное не засчитывается.
Торрент: Зарегистрирован [2019-12-09 09:12] · скачан: 43 раз
Статус: √ проверено
Размер: 56.23 GB
Как cкачать? Как скачать Yesterday через торрент | UTorrent

% Раздел Тема Автор DL S | L
Pop-Rock & Soft Rock (mp3) [ 1.12 GB ] VA - The Blues For Yesterday [Vol.05] / MP3 / 320 kbps / Rock Blues bober100 Скачать
1 | 0
Pop-Rock & Soft Rock (mp3) [ 1.1 GB ] VA - Blues For Yesterday [Vol.01] / MP3 / 320 kbps / Blues Rock Blues Folk Rock bober100 Скачать
2 | 0
Progressive, Art-Rock (mp3) [ 137 MB ] Deaton LeMay Project - Day After Yesterday 2019 / MP3 / 320 kbps / Progressive-Rock bober100 Скачать
1 | 0
Ultra HD (UHD: 2K, 4K, 8K) — видео сверхвысокой чёткости [ 11.82 GB ] Yesterday / Yesterday [2019 Мюзикл музыка UHD BDRip 2160p] DUB [] +AVO [С.Визгунов] bober100 Скачать
1 | 0
Фильмы 2019-2020 [DVDrip, WEB-DLRip, HDrip] (DUB, MVO) [ 747 MB ] Yesterday / Yesterday [2019 Мюзикл музыка BDRip-AVC от OlLanDGroup] DUB [ BD EUR] Skandar2019 Скачать
1 | 0
Фильмы 2019-2020 [DVDrip, WEB-DLRip, HDrip] (DUB, MVO) [ 1.46 GB ] Yesterday / Yesterday [2019 Мюзикл музыка BDRip-AVC от OlLanDGroup] DUB [ BD EUR] Skandar2019 Скачать
1 | 0
Фильмы 2019-2020 [DVDrip, WEB-DLRip, HDrip] (DUB, MVO) [ 2.18 GB ] Yesterday / Yesterday [2019 мюзикл музыка BDRip] - [] Twi7ter Скачать
2 | 0

28-11-2019 20:33  

Отключить вcю реклaмy на сайте

    Дорогой пользователь! Огромная просьба, поблагодарите релизера, оцените раздачу и оставьте свои комментарий, если Вы скачали Yesterday через торрент бесплатно!
    Комментировать посты могут только пользователи прошедшие не сложную регистрацию
    Показать сообщения:    

    Yesterday через торрент
    Скачать бесплатно Yesterday
    Yesterday скачать торрент
    Yesterday смотреть онлайн
    Cкачать фильм Yesterday бесплатно
    Yesterday скачать торрент в хорошем качестве
    Yesterday смотреть онлайн бесплатно в хорошем качестве


    Вы не можете начинать темы
    Вы не можете отвечать на сообщения
    Вы не можете редактировать свои сообщения
    Вы не можете удалять свои сообщения
    Вы не можете голосовать в опросах
    Вы не можете прикреплять файлы к сообщениям
    Вы можете скачивать файлы