Ссылка на приватное зеркало всего за 1$. Внимание количество ограничено!!!

OK

1+1

iTunes

мы

OK

1

WEB-DLRip

Джокер

Пифагор

Ведьмак / The Witcher сериал

Лицензия

ПШазам

ОК

Оно 2

iTunes

30
pack

Вам бонус

ВАЖНО

!!Акция!!

Alien_RageХит недели

RePack

Resident Evil 21

ИГРА 18+

pack

RePack

jed

!!Акция!!

Alien_Rage

RePack

fifa19

RePack

Assassins Creed: Odyssey

RePack

NEED FOR SPEED™ PAYBACK

4 сезон

9 сезон

Бесстыжие 9 сезон

Все сериалы

все сериалы на PB.wtf

RePack

FAR CRY 5
  

Полвека поэзии спустя / Pól wieku poezji pózniej (Якуб Нурзинский) [2019, фэнтези, WEB-DLRip] [WITCHER FAN FILM] (VO) [LakeFilms] pb.wtf

Полвека поэзии спустя через торрент pb.wtf

Раздают: 2 [ 3 KB/s ]
Размер: 1.63 GB | Добавлен: 1 мес. 12 д. назад | Торрент скачан:217 раз
Скачать  

09-12-2019 14:48 Полвека поэзии спустя Скачать торрент  

Полвека поэзии спустя / ALZUR'S LEGACY / WITCHER FAN FILM

Год выпуска: 2019
Страна: Польша
Жанр: фэнтези
Продолжительность: 01:42:00
Перевод: Любительский (одноголосый закадровый) [LakeFilms]
Субтитры: нет

Режиссер: Якуб Нурзинский

В ролях: Мариуш Дрезек (Ламберт), Магдалена Розанская (Трисс Меригольд), Збигнев Замаховский (Лютик), Камила Каминска (Орнелла), Павел Липницкий (Весемир) и Пшемыслав Казмирчак (Эскель)

Описание: Фильм от фанатов для фанатов.
Последний оставшийся в живых ведьмак Ламберт оказывается втянутым в поиски Книги Альзура, хранящей многие секреты, в том числе и способы создания ведьмаков.

ratingскриншот  
Сэмпл: https://yadi.sk/i/3qLcCmrsil2FQQ

Качество видео: WEBRip 1080p
Формат видео: MKV

Видео: MPEG-4-AVC, 1920х1080, 16:9,25,000 кадров/сек, 1 900 Кбит/сек
Аудио: AC3, 384 Кбит/сек, 2 канала, 48,0 КГц
General
Unique ID : 198418330375656622988964349572071832864 (0x9545FAFB66BCA9C7D3EEB9BF69543D20)
Complete name : E:\INTERNET\Alzurs.Legacy.WEBRip.1080p.LakeFilms.mkv
Format : Matroska
Format version : Version 4 / Version 2
File size : 1.63 GiB
Duration : 1 h 42 min
Overall bit rate : 2 273 kb/s
Encoded date : UTC 2019-12-08 14:47:37
Writing application : mkvmerge v40.0.0 ('Old Town Road + Pony') 64-bit
Writing library : libebml v1.3.9 + libmatroska v1.5.2

Video
ID : 1
Format : AVC
Format/Info : Advanced Video Codec
Format profile : High@L4
Format settings : CABAC / 3 Ref Frames
Format settings, CABAC : Yes
Format settings, RefFrames : 3 frames
Codec ID : V_MPEG4/ISO/AVC
Duration : 1 h 42 min
Bit rate : 1 844 kb/s
Width : 1 920 pixels
Height : 1 080 pixels
Display aspect ratio : 16:9
Frame rate mode : Constant
Frame rate : 25.000 FPS
Color space : YUV
Chroma subsampling : 4:2:0
Bit depth : 8 bits
Scan type : Progressive
Bits/(Pixel*Frame) : 0.036
Stream size : 1.32 GiB (81%)
Default : Yes
Forced : No
Color range : Limited
Color primaries : BT.709
Transfer characteristics : BT.709
Matrix coefficients : BT.709

Audio
ID : 2
Format : AC-3
Format/Info : Audio Coding 3
Format settings, Endianness : Big
Codec ID : A_AC3
Duration : 1 h 42 min
Bit rate mode : Constant
Bit rate : 384 kb/s
Channel(s) : 2 channels
Channel positions : Front: L R
Sampling rate : 48.0 kHz
Frame rate : 31.250 FPS (1536 SPF)
Bit depth : 16 bits
Compression mode : Lossy
Stream size : 282 MiB (17%)
Service kind : Complete Main
Default : Yes
Forced : No
скриншот  скриншот  скриншот  
pb.wtf



Скачать Полвека поэзии спустя через торрент https://i1.fdbimg.pl/kzmf4b02/624x904_q14h5f.jpg Скачать фильм Полвека поэзии спустя через торрент бесплантно в хорошем качестве Описание: Фильм от фанатов для фанатов.Последний оставшийся в живых ведьмак Ламберт оказывается втянутым в поиски Книги Альзура, хранящей ... 9.9 10 9
Info! Золотая раздача, скачанное не засчитывается.
Торрент: Зарегистрирован [2019-12-09 14:57] · скачан: 217 раз
Статус: T временная
Размер: 1.63 GB
Как cкачать? Как скачать Полвека поэзии спустя через торрент | qTorrent



Последний раз редактировалось: killermax2013 (2019-12-09 15:03), всего редактировалось 4 раз(а)

28-11-2019 20:33  

Отключить всю рекламу на сайте

09-12-2019 14:52 Полвека поэзии спустя Скачать торрент  

не качаетсяpb.wtf
Kkillermax2013 писал(а):

перекачайте торент файл



    Дорогой пользователь! Огромная просьба, поблагодарите релизера, оцените раздачу и оставьте свои комментарий, если Вы скачали Полвека поэзии спустя через торрент бесплатно! Внесите свою лепту в развитие PiratBit!
    Комментировать посты могут только пользователи прошедшие не сложную регистрацию
    Показать сообщения:    

    Полвека поэзии спустя через торрент
    Скачать бесплатно Полвека поэзии спустя
    Полвека поэзии спустя скачать торрент
    Полвека поэзии спустя смотреть онлайн
    Cкачать фильм Полвека поэзии спустя бесплатно
    Полвека поэзии спустя скачать торрент в хорошем качестве
    Полвека поэзии спустя смотреть онлайн бесплатно в хорошем качестве


    Вы не можете начинать темы
    Вы не можете отвечать на сообщения
    Вы не можете редактировать свои сообщения
    Вы не можете удалять свои сообщения
    Вы не можете голосовать в опросах
    Вы не можете прикреплять файлы к сообщениям
    Вы можете скачивать файлы