Ссылка на приватное зеркало всего за 1$. Внимание количество ограничено!!!

OK

1+1

iTunes

мы

OK

1

WEB-DLRip

Джокер

Пифагор

Ведьмак / The Witcher сериал

Лицензия

ПШазам

ОК

Оно 2

iTunes

30
pack

Вам бонус

ВАЖНО

!!Акция!!

Alien_RageХит недели

RePack

Resident Evil 21

ИГРА 18+

pack

RePack

jed

RePack

fifa19

RePack

Assassins Creed: Odyssey

RePack

NEED FOR SPEED™ PAYBACK

4 сезон

9 сезон

Бесстыжие 9 сезон

Все сериалы

все сериалы на PB.wtf

RePack

FAR CRY 5
  

Мертвые президенты / Dead Presidents (Альберт Хьюз, Аллен Хьюз) [1995, триллер, драма, криминал, военный, WEB-DL 1080p] [DVO] (SDI Media) + [AVO] (А.Гаврилов) + 2x[VO] pb.wtf

Мертвые президенты через торрент pb.wtf

Размер: 4.77 GB | Добавлен: 1 мес. 13 д. назад | Торрент скачан:43 раза
Скачать  

09-12-2019 17:11 Мертвые президенты Скачать торрент  

Мертвые президентыDead Presidents
Год выпуска: 1995
Страна: США
Жанры: триллер, драма, криминал, военный
Продолжительность: 01:59:23
Перевод #1: Профессиональный (двухголосый закадровый) SDI Media
Перевод #2: Авторский (одноголосый закадровый) Андрей Гаврилов
Перевод #3: Одноголосый закадровый Неизвестый
Перевод #4: Одноголосый закадровый Яроцкий
Субтитры: английские
Режиссёры: Альберт Хьюз, Аллен Хьюз / Albert Hughes, Allen Hughes

В ролях: Лоренц Тейт, Крис Такер, Кит Дэвид, Н’Буш Райт, Роуз Джексон, Фредди Родригес, Дженифер Льюис, Майкл Империоли, Букем Вудбайн, Терренс Ховард, Джеймс Пикенс мл., Клифтон Пауэлл, Элизабет Родригез, Стикки Фингаз, Джеймс Вулветт, Карлтон Уилборн, Мартин Шин и др.
Описание: Мертвые Президенты — так на воровском жаргоне называют наличные доллары. Вьетнам отнял у ветерана Энтони Кертиса спокойствие, сон и надежду на счастье. Криминальные кварталы родного города, куда ему было суждено вернуться, не сулили большого будущего.
Лишь деньги — единственный выход из безысходной жизни. На них Энтони мог бы купить и спокойствие, и сон, и надежду с счастьем в придачу. Собрав друзей, ветеран замышляет дерзкое ограбление: новоиспеченная банда собирается среди бела дня напасть на бронированный фургон Федерального Банка. Но в погоне за «мертвыми президентами» жизнь не стоит и гроша…
rating
Качество: WEB-DL 1080p
Формат: MKV
Видео: x264, 1920x816 (2.35:1), 23.976 fps, ~3882 kbps avg, 0.103 bit/pixel
Аудио #1: Russian 48.0 KHz, AC3, 2 channels, ~192.00 kbps avg |SDI Media|
Аудио #2: Russian 48.0 KHz, AC3, 2 channels, ~192.00 kbps avg |Гаврилов|
Аудио #3: Russian 48.0 KHz, AC3, 6 channels, ~448.00 kbps avg |Неизвестный|
Аудио #4: Russian 48.0 KHz, AC3, 6 channels, ~448.00 kbps avg |Яроцкий|
Аудио #5: English 48.0 KHz, AC3, 6 channels, ~448.00 kbps avg |Original|
Формат субтитров: softsub (SRT)
General
Unique ID : 199010869866870523642566152302418773554 (0x95B8196F3B64D63F9ACB9FE5CA18C632)
Complete name : F:\Dead.Presidents.1995.WEB-DL.1080p.4xRus.Eng.-whip93.mkv
Format : Matroska
Format version : Version 4 / Version 2
File size : 4.77 GiB
Duration : 1h 59mn
Overall bit rate mode : Variable
Overall bit rate : 5 724 Kbps
Movie name : Мёртвые президенты | Dead Presidents (1995) - Release by whip93
Encoded date : UTC 2016-06-12 12:15:24
Writing application : mkvmerge v6.1.0 ('Old Devil') built on Mar 4 2013 09:10:42
Writing library : libebml v1.3.0 + libmatroska v1.4.0
Attachements : cover.jpg

Video
ID : 1
Format : AVC
Format/Info : Advanced Video Codec
Format profile : Main@L4
Format settings, CABAC : Yes
Format settings, ReFrames : 2 frames
Codec ID : V_MPEG4/ISO/AVC
Duration : 1h 59mn
Bit rate mode : Variable
Bit rate : 3 882 Kbps
Width : 1 920 pixels
Height : 816 pixels
Display aspect ratio : 2.35:1
Frame rate mode : Constant
Frame rate : 23.976 fps
Color space : YUV
Chroma subsampling : 4:2:0
Bit depth : 8 bits
Scan type : Progressive
Bits/(Pixel*Frame) : 0.103
Stream size : 3.24 GiB (68%)
Language : English
Default : Yes
Forced : No

Audio #1
ID : 2
Format : AC-3
Format/Info : Audio Coding 3
Mode extension : CM (complete main)
Format settings, Endianness : Big
Codec ID : A_AC3
Duration : 1h 59mn
Bit rate mode : Constant
Bit rate : 192 Kbps
Channel(s) : 2 channels
Channel positions : Front: L R
Sampling rate : 48.0 KHz
Compression mode : Lossy
Stream size : 164 MiB (3%)
Title : DVO (SDI Media)
Language : Russian
Default : Yes
Forced : No

Audio #2
ID : 3
Format : AC-3
Format/Info : Audio Coding 3
Mode extension : CM (complete main)
Format settings, Endianness : Big
Codec ID : A_AC3
Duration : 1h 59mn
Bit rate mode : Constant
Bit rate : 192 Kbps
Channel(s) : 2 channels
Channel positions : Front: L R
Sampling rate : 48.0 KHz
Compression mode : Lossy
Stream size : 164 MiB (3%)
Title : AVO (Гаврилов)
Language : Russian
Default : No
Forced : No

Audio #3
ID : 4
Format : AC-3
Format/Info : Audio Coding 3
Mode extension : CM (complete main)
Format settings, Endianness : Big
Codec ID : A_AC3
Duration : 1h 59mn
Bit rate mode : Constant
Bit rate : 448 Kbps
Channel(s) : 6 channels
Channel positions : Front: L C R, Side: L R, LFE
Sampling rate : 48.0 KHz
Compression mode : Lossy
Stream size : 383 MiB (8%)
Title : AVO (Неизвестный)
Language : Russian
Default : No
Forced : No

Audio #4
ID : 5
Format : AC-3
Format/Info : Audio Coding 3
Mode extension : CM (complete main)
Format settings, Endianness : Big
Codec ID : A_AC3
Duration : 1h 59mn
Bit rate mode : Constant
Bit rate : 448 Kbps
Channel(s) : 6 channels
Channel positions : Front: L C R, Side: L R, LFE
Sampling rate : 48.0 KHz
Compression mode : Lossy
Stream size : 383 MiB (8%)
Title : AVO (Яроцкий)
Language : Russian
Default : No
Forced : No

Audio #5
ID : 6
Format : AC-3
Format/Info : Audio Coding 3
Mode extension : CM (complete main)
Format settings, Endianness : Big
Codec ID : A_AC3
Duration : 1h 59mn
Bit rate mode : Constant
Bit rate : 448 Kbps
Channel(s) : 6 channels
Channel positions : Front: L C R, Side: L R, LFE
Sampling rate : 48.0 KHz
Compression mode : Lossy
Stream size : 383 MiB (8%)
Language : English
Default : No
Forced : No

Text
ID : 7
Format : UTF-8
Codec ID : S_TEXT/UTF8
Codec ID/Info : UTF-8 Plain Text
Language : English
Default : No
Forced : No

Menu
00:00:00.000 : en:Chapter 1
00:07:49.000 : en:Chapter 2
00:14:03.000 : en:Chapter 3
00:20:40.000 : en:Chapter 4
00:28:52.000 : en:Chapter 5
00:36:24.000 : en:Chapter 6
00:51:28.000 : en:Chapter 7
01:00:26.000 : en:Chapter 8
01:08:25.000 : en:Chapter 9
01:19:10.000 : en:Chapter 10
01:26:49.000 : en:Chapter 11
01:32:09.000 : en:Chapter 12
01:40:42.000 : en:Chapter 13
01:45:41.000 : en:Chapter 14
01:51:46.000 : en:Chapter 15
01:54:37.000 : en:Chapter 16
скриншот  скриншот  скриншот  

pb.wtf



Скачать Мертвые президенты через торрент http://s020.radikal.ru/i701/1606/2e/d965a5ef256e.jpg Скачать фильм Мертвые президенты через торрент бесплантно в хорошем качестве Описание: Мертвые Президенты — так на воровском жаргоне называют наличные доллары. Вьетнам отнял у ветерана Энтони Кертиса спокойствие, сон ... 8.5 10 6
Торрент: Зарегистрирован [2019-12-09 17:11] · скачан: 43 раз
Статус: √ проверено
Размер: 4.77 GB
Как cкачать? Как скачать Мертвые президенты через торрент | qTorrent

28-11-2019 20:33  

Отключить всю рекламу на сайте

    Дорогой пользователь! Огромная просьба, поблагодарите релизера, оцените раздачу и оставьте свои комментарий, если Вы скачали Мертвые президенты через торрент бесплатно! Внесите свою лепту в развитие PiratBit!
    Комментировать посты могут только пользователи прошедшие не сложную регистрацию
    Показать сообщения:    

    Мертвые президенты через торрент
    Скачать бесплатно Мертвые президенты
    Мертвые президенты скачать торрент
    Мертвые президенты смотреть онлайн
    Cкачать фильм Мертвые президенты бесплатно
    Мертвые президенты скачать торрент в хорошем качестве
    Мертвые президенты смотреть онлайн бесплатно в хорошем качестве


    Вы не можете начинать темы
    Вы не можете отвечать на сообщения
    Вы не можете редактировать свои сообщения
    Вы не можете удалять свои сообщения
    Вы не можете голосовать в опросах
    Вы не можете прикреплять файлы к сообщениям
    Вы можете скачивать файлы