Ссылка на приватное зеркало всего за 1$. Внимание количество ограничено!!!

OK

1+1

iTunes

мы

OK

1

WEB-DLRip

Джокер

Пифагор

Ведьмак / The Witcher сериал

iTunes

ПШазам

ОК

Оно 2

iTunes

30
pack

Вам бонус

ВАЖНО

!!Акция!!

Alien_RageХит недели

RePack

Resident Evil 21

ИГРА 18+

pack

RePack

jed

RePack

fifa19

RePack

Assassins Creed: Odyssey

RePack

NEED FOR SPEED™ PAYBACK

4 сезон

9 сезон

Бесстыжие 9 сезон

Все сериалы

все сериалы на PB.wtf

RePack

FAR CRY 5
  

Тёмная сторона / Bloodline (Генри Джейкобсон) [2018, Ужасы, триллер, криминал, BDRip-AVC] DUB [iTunes] pb.wtf

Тёмная сторона через торрент pb.wtf

Раздают: 2 [ 0 KB/s ]
Размер: 1.89 GB | Добавлен: 1 мес. 7 д. назад | Торрент скачан:98 раз
Скачать  

09-12-2019 18:13 Тёмная сторона Скачать торрент  

Тёмная сторона / Bloodline«Посмотри тьме в глаза»
Год выпуска: 2018
Страна: США
Студия: Blumhouse Productions, Divide / Conquer, Mind Hive Films
Жанр: Ужасы, триллер, криминал
Продолжительность: 01:36:38
Перевод: Дублированный | iTunes
Субтитры: Английские (полные)

Режиссер: Генри Джейкобсон

rating

В ролях: Шонн Уильям Скотт, Мариэла Гаррига, Дейл Дикки, Кристи Херринг, Рэймонд Александр Чэм мл., Ник Борэйни, Кевин Кэрролл, Шон Х. Скалли, Мэттью Флинн Беллоуз, Лейт М. Бурк

Описание: В жизни Эвана все прекрасно и стабильно - любящая жена, маленький ребенок и интересная работа школьного психолога. Но никто из окружающих не догадывается, что у жизни Эвана есть и другая, тёмная сторона, на которую лучше не заходить никому.

Качество: BDRip-AVC
Формат: MKV

Видео: 1024x512 (2:1), 23,976 fps, x264 ~1 984 kbps avg, 0.158 bit/pixel
Аудио #1: 48 kHz, AC3 Dolby Digital, 3/2 (L,C,R,l,r) + LFE ch, ~384.00 kbps avg | RUS (iTunes)
Аудио #2: 48 kHz, AC3 Dolby Digital, 3/2 (L,C,R,l,r) + LFE ch, ~448.00 kbps avg | ENG
скриншот  скриншот  скриншот  скриншот  скриншот  

Общее
Уникальный идентификатор : 113383590848692032821835291417756714197 (0x554CE2A1D362F0504346ABFF4B0644D5)
Полное имя : F:\OlLanDGroup\Bloodline.2018.BDRip(AVC).OllanDGroup.mkv
Формат : Matroska
Версия формата : Version 4 / Version 2
Размер файла : 1,89 Гбайт
Продолжительность : 1 ч. 36 м.
Общий поток : 2806 Кбит/сек
Название фильма : Bloodline.2018 #TorpedoUK#
Дата кодирования : UTC 2019-12-20 12:24:49
Программа кодирования : mkvmerge v29.0.0 ('Like It Or Not') 64-bit
Библиотека кодирования : libebml v1.3.6 + libmatroska v1.4.9

Видео
Идентификатор : 1
Формат : AVC
Формат/Информация : Advanced Video Codec
Профиль формата : High@L4.1
Параметр CABAC формата : Да
Параметр ReFrames формата : 10 кадров
Идентификатор кодека : V_MPEG4/ISO/AVC
Продолжительность : 1 ч. 36 м.
Битрейт : 1984 Кбит/сек
Ширина : 1024 пикселя
Высота : 512 пикселей
Соотношение сторон : 2,000
Режим частоты кадров : Постоянный
Частота кадров : 23,976 (24000/1001) кадра/сек
Цветовое пространство : YUV
Субдискретизация насыщенности : 4:2:0
Битовая глубина : 8 бит
Тип развёртки : Прогрессивная
Бит/(Пиксели*Кадры) : 0.158
Размер потока : 1,33 Гбайт (70%)
Библиотека кодирования : x264 core 146 r2538 121396c
Настройки программы : cabac=1 / ref=10 / deblock=1:-3:-3 / analyse=0x3:0x113 / me=umh / subme=11 / psy=1 / psy_rd=0.98:0.04 / mixed_ref=1 / me_range=48 / chroma_me=1 / trellis=2 / 8x8dct=1 / cqm=0 / deadzone=21,11 / fast_pskip=1 / chroma_qp_offset=-6 / threads=6 / lookahead_threads=1 / sliced_threads=0 / nr=0 / decimate=1 / interlaced=0 / bluray_compat=0 / constrained_intra=0 / bframes=11 / b_pyramid=2 / b_adapt=2 / b_bias=0 / direct=3 / weightb=1 / open_gop=0 / weightp=2 / keyint=240 / keyint_min=23 / scenecut=40 / intra_refresh=0 / rc_lookahead=40 / rc=2pass / mbtree=0 / bitrate=1984 / ratetol=1.0 / qcomp=0.60 / qpmin=0 / qpmax=69 / qpstep=4 / cplxblur=20.0 / qblur=0.5 / vbv_maxrate=50000 / vbv_bufsize=62500 / nal_hrd=none / filler=0 / ip_ratio=1.40 / pb_ratio=1.30 / aq=1:1.00
Язык : English
Default : Да
Forced : Нет

Аудио #1
Идентификатор : 2
Формат : AC-3
Формат/Информация : Audio Coding 3
Расширение режима : CM (complete main)
Параметр Endianness формата : Big
Идентификатор кодека : A_AC3
Продолжительность : 1 ч. 36 м.
Вид битрейта : Постоянный
Битрейт : 384 Кбит/сек
Каналы : 6 каналов
Расположение каналов : Front: L C R, Side: L R, LFE
Частота : 48,0 КГц
Частота кадров : 31,250 кадров/сек (1536 spf)
Битовая глубина : 16 бит
Метод сжатия : С потерями
Размер потока : 265 Мбайт (14%)
Заголовок : DUB [iTunes]
Язык : Russian
Default : Да
Forced : Нет

Аудио #2
Идентификатор : 3
Формат : AC-3
Формат/Информация : Audio Coding 3
Расширение режима : CM (complete main)
Параметр Endianness формата : Big
Идентификатор кодека : A_AC3
Продолжительность : 1 ч. 36 м.
Вид битрейта : Постоянный
Битрейт : 448 Кбит/сек
Каналы : 6 каналов
Расположение каналов : Front: L C R, Side: L R, LFE
Частота : 48,0 КГц
Частота кадров : 31,250 кадров/сек (1536 spf)
Битовая глубина : 16 бит
Метод сжатия : С потерями
Размер потока : 310 Мбайт (16%)
Заголовок : [Original]
Язык : English
Default : Нет
Forced : Нет

Текст
Идентификатор : 4
Формат : UTF-8
Идентификатор кодека : S_TEXT/UTF8
Идентификатор кодека/Информация : UTF-8 Plain Text
Продолжительность : 1 ч. 27 м.
Битрейт : 39 бит/сек
Count of elements : 915
Размер потока : 25,2 Кбайт (0%)
Заголовок : Full
Язык : English
Default : Нет
Forced : Нет

Меню
00:00:00.000 : en:Chapter 01
00:05:01.509 : en:Chapter 02
00:11:16.175 : en:Chapter 03
00:18:21.975 : en:Chapter 04
00:25:08.048 : en:Chapter 05
00:30:42.131 : en:Chapter 06
00:35:48.354 : en:Chapter 07
00:42:49.024 : en:Chapter 08
00:47:36.311 : en:Chapter 09
00:56:23.171 : en:Chapter 10
01:01:02.116 : en:Chapter 11
01:09:00.469 : en:Chapter 12
01:15:03.332 : en:Chapter 13
01:19:29.931 : en:Chapter 14
01:25:44.305 : en:Chapter 15
01:31:56.719 : en:Chapter 16

pb.wtf



Скачать Тёмная сторона через торрент https://c.radikal.ru/c20/1912/86/e63d0be19aff.jpg Скачать фильм Тёмная сторона через торрент бесплантно в хорошем качестве Описание: В жизни Эвана все прекрасно и стабильно - любящая жена, маленький ребенок и интересная работа школьного психолога. Но никто из ... 10 10 7
Торрент: Зарегистрирован [2019-12-20 12:37] · скачан: 98 раз
Статус: √ проверено
Размер: 1.89 GB
Как cкачать? Как скачать Тёмная сторона через торрент | qTorrent

% Раздел Тема Автор DL S | L
T Фильмы [HD 720p, 1080p] (Хороший звук DUB, MVO) [ 7.91 GB ] Тёмная сторона / Bloodline [2018 BDRip 1080p] bober100 Скачать
4 | 0
Фильмы 2018 [DVDrip, WEB-DLRip, HDrip] (DUB, MVO) [ 745 MB ] Тёмная сторона / Bloodline [2018 HDRip] DUB bober100 Скачать
2 | 0
Фильмы 2018 [DVDrip, WEB-DLRip, HDrip] (DUB, MVO) [ 1.42 GB ] Тёмная сторона / Bloodline [2018 BDRip] - Twi7ter Скачать
10 | 1
T Фильмы [HD 720p, 1080p] (Хороший звук DUB, MVO) [ 10.65 GB ] Тёмная сторона / Bloodline [2018 BDRip 1080p] DUB bober100 Скачать
4 | 0
Фильмы с авторской озвучкой [ 1.64 GB ] Тёмная сторона / Bloodline [2018 WEB-DLRip-AVC] AVO [А.Важенин [BadBajo] - ExKinoRay Enigma2010 Скачать
7 | 3

28-11-2019 20:33  

Отключить всю рекламу на сайте

20-12-2019 14:00 Тёмная сторона Скачать торрент  

pb.wtf



    Дорогой пользователь! Огромная просьба, поблагодарите релизера, оцените раздачу и оставьте свои комментарий, если Вы скачали Тёмная сторона через торрент бесплатно! Внесите свою лепту в развитие PiratBit!
    Комментировать посты могут только пользователи прошедшие не сложную регистрацию
    Показать сообщения:    

    Тёмная сторона через торрент
    Скачать бесплатно Тёмная сторона
    Тёмная сторона скачать торрент
    Тёмная сторона смотреть онлайн
    Cкачать фильм Тёмная сторона бесплатно
    Тёмная сторона скачать торрент в хорошем качестве
    Тёмная сторона смотреть онлайн бесплатно в хорошем качестве


    Вы не можете начинать темы
    Вы не можете отвечать на сообщения
    Вы не можете редактировать свои сообщения
    Вы не можете удалять свои сообщения
    Вы не можете голосовать в опросах
    Вы не можете прикреплять файлы к сообщениям
    Вы можете скачивать файлы