Ссылка на приватное зеркало всего за 1$. Внимание количество ограничено!!!

OK

1+1

iTunes

мы

OK

1

WEB-DLRip

Джокер

Пифагор

Ведьмак / The Witcher сериал

Лицензия

ПШазам

ОК

Оно 2

iTunes

30
pack

Вам бонус

ВАЖНО

!!Акция!!

Alien_RageХит недели

RePack

Resident Evil 21

ИГРА 18+

pack

RePack

jed

RePack

fifa19

RePack

Assassins Creed: Odyssey

RePack

NEED FOR SPEED™ PAYBACK

4 сезон

9 сезон

Бесстыжие 9 сезон

Все сериалы

все сериалы на PB.wtf

RePack

FAR CRY 5
  

Кто твоя бабушка, чувак? / C'est quoi cette mamie?! (Габриэль Жюльен-Лаферье) [2019, Комедия, WEB-DL 1080p] MVO [iTunes] pb.wtf

Кто твоя бабушка, чувак? через торрент pb.wtf

Раздают: 2 [ 0 KB/s ]
Размер: 3.43 GB | Добавлен: 1 мес. 13 д. назад | Торрент скачан:105 раз
Скачать  

09-12-2019 20:26 Кто твоя бабушка, чувак? Скачать торрент  

Кто твоя бабушка, чувак? / C'est quoi cette mamie?!
Год выпуска: 2019
Страна: Франция, Бельгия
Жанр: Комедия
Продолжительность: 01:39:17
Перевод: Профессиональный многоголосый | iTunes
Субтитры: отсутствуют

Режиссер: Габриэль Жюльен-Лаферье

rating

В ролях: Шанталь Ладезу, Жюли Гайе, Тьерри Нёвик, Жюли Депардьё, Люсьен Жан-Батист, Клаудия Тагбо, Филипп Катрин, Арие Эльмалех, Нино Киртадзе, Садио Диалло

Описание: Аврора наслаждается богатой жизнью в своих апартаментах на Лазурном Берегу во Франции. Вечеринки, друзья, путешествия, и самое важное - свое расписание дня. В один день дочери отправляют погостить к ней семь внуков от 6-ти до 18 лет.

Качество: WEB-DL 1080p
Формат: MKV

Видео: MPEG-4 AVC, 4459 Кбит/с, 1920x806
Аудио: 48 kHz, AC3 Dolby Digital, 3/2 (L,C,R,l,r) + LFE ch, ~384 kbps
скриншот  скриншот  скриншот  скриншот  

Video
ID : 1
Format : AVC
Format/Info : Advanced Video Codec
Format profile : High@L4
Format settings : CABAC / 5 Ref Frames
Format settings, CABAC : Yes
Format settings, Reference : 5 frames
Codec ID : V_MPEG4/ISO/AVC
Duration : 1 h 39 min
Bit rate : 4 459 kb/s
Width : 1 920 pixels
Height : 806 pixels
Display aspect ratio : 2.40:1
Frame rate mode : Constant
Frame rate : 24.000 FPS
Color space : YUV
Chroma subsampling : 4:2:0
Bit depth : 8 bits
Scan type : Progressive
Bits/(Pixel*Frame) : 0.120
Stream size : 3.09 GiB (90%)
Language : English
Default : Yes
Forced : No
Color range : Limited
Color primaries : BT.709
Transfer characteristics : BT.709
Matrix coefficients : BT.709

Audio
ID : 2
Format : AC-3
Format/Info : Audio Coding 3
Commercial name : Dolby Digital
Codec ID : A_AC3
Duration : 1 h 39 min
Bit rate mode : Constant
Bit rate : 384 kb/s
Channel(s) : 6 channels
Channel layout : L R C LFE Ls Rs
Sampling rate : 48.0 kHz
Frame rate : 31.250 FPS (1536 SPF)
Compression mode : Lossy
Stream size : 273 MiB (8%)
Title : [MVO] DD 5.1 @ 384 kbps (iTunes)
Language : Russian
Service kind : Complete Main
Default : Yes
Forced : No

Menu
00:00:00.000 : en:Глава 1
00:04:42.083 : en:Глава 2
00:12:14.749 : en:Глава 3
00:19:22.332 : en:Глава 4
00:26:15.123 : en:Глава 5
00:35:14.498 : en:Глава 6
00:40:29.414 : en:Глава 7
00:46:37.289 : en:Глава 8
00:53:03.289 : en:Глава 9
01:00:02.330 : en:Глава 10
01:04:50.830 : en:Глава 11
01:09:20.788 : en:Глава 12
01:15:17.329 : en:Глава 13
01:21:32.287 : en:Глава 14
01:25:59.037 : en:Глава 15
01:33:25.120 : en:Глава 16

pb.wtf



Скачать Кто твоя бабушка, чувак? через торрент https://d.radikal.ru/d11/1912/62/6d4d7c944f22.png Скачать фильм Кто твоя бабушка, чувак? через торрент бесплантно в хорошем качестве Описание: Аврора наслаждается богатой жизнью в своих апартаментах на Лазурном Берегу во Франции. Вечеринки, друзья, путешествия, и самое ... 10 10 7
Торрент: Зарегистрирован [2019-12-09 20:26] · скачан: 105 раз
Статус: √ проверено
Размер: 3.43 GB
Как cкачать? Как скачать Кто твоя бабушка, чувак? через торрент | qTorrent

28-11-2019 20:33  

Отключить всю рекламу на сайте

    Дорогой пользователь! Огромная просьба, поблагодарите релизера, оцените раздачу и оставьте свои комментарий, если Вы скачали Кто твоя бабушка, чувак? через торрент бесплатно! Внесите свою лепту в развитие PiratBit!
    Комментировать посты могут только пользователи прошедшие не сложную регистрацию
    Показать сообщения:    

    Кто твоя бабушка, чувак? через торрент
    Скачать бесплатно Кто твоя бабушка, чувак?
    Кто твоя бабушка, чувак? скачать торрент
    Кто твоя бабушка, чувак? смотреть онлайн
    Cкачать фильм Кто твоя бабушка, чувак? бесплатно
    Кто твоя бабушка, чувак? скачать торрент в хорошем качестве
    Кто твоя бабушка, чувак? смотреть онлайн бесплатно в хорошем качестве


    Вы не можете начинать темы
    Вы не можете отвечать на сообщения
    Вы не можете редактировать свои сообщения
    Вы не можете удалять свои сообщения
    Вы не можете голосовать в опросах
    Вы не можете прикреплять файлы к сообщениям
    Вы можете скачивать файлы