Ссылка на приватное зеркало всего за 1$. Внимание количество ограничено!!!

OK

1+1

iTunes

мы

OK

1

WEB-DLRip

Джокер

Пифагор

Ведьмак / The Witcher сериал

iTunes

ПШазам

ОК

Оно 2

iTunes

30
pack

Вам бонус

ВАЖНО

!!Акция!!

Alien_RageХит недели

RePack

Resident Evil 21

ИГРА 18+

pack

RePack

jed

RePack

fifa19

RePack

Assassins Creed: Odyssey

RePack

NEED FOR SPEED™ PAYBACK

4 сезон

9 сезон

Бесстыжие 9 сезон

Все сериалы

все сериалы на PB.wtf

RePack

FAR CRY 5
  

Тайны следствия / Сезон: 19 / Серии: 1-24 из 24 (Ольга Кандидатова) [2019, Детектив, драма, криминал, WEB-DLRip] pb.wtf

Тайны следствия через торрент pb.wtf

Размер: 15.58 GB | Добавлен: 1 мес. назад | Торрент скачан:4 раза
Скачать  

10-12-2019 04:46 Тайны следствия Скачать торрент  

Тайны следствия Год выпуска: 2019
Страна: Россия
Жанр: Детектив, драма, криминал
Продолжительность: ~ 00:50:00 серия
Субтитры: отсутствуют

Режиссер: Ольга Кандидатова

rating

В ролях: Анна Ковальчук, Вячеслав Захаров, Игорь Николаев, Александр Новиков (III), Антон Ксенев, Давид Бродский, Андрей Шарков, Степан Пивкин, Татьяна Левина, Анастасия Ступина, Светлана Щедрина, Злата Ильченко, Варвара Александрова, Владимир Постников, Владимир Колганов, Андрей Булатов, Александр Андреев, Александр Конев

Описание: Строгая и обаятельная Мария Сергеевна Швецова продолжает работать в Следственном комитете. После расставания с хирургом Солнцевым она снова свободна и теперь полностью погружена в работу. А вот в жизни Курочкина и Кораблева большие перемены - их повышают в должности. Кораблев теперь становится начальником убойного отдела, переезжает в отдельный кабинет. Для усиления отдела в помощь Курочкину решено взять нового сотрудника - Олега Платонова, профессионала своего дела со сложным характером и неоднозначной репутацией.

Качество: WEB-DLRip
Формат: AVI

Видео: XviD, ~ 1600 Кбит/с, 720x400
Аудио: AC3, 2 ch, 192 Кбит/с
скриншот  скриншот  скриншот  скриншот  

General
Complete name : C:\00\6354\Тайны следствия .S19.2019. WEB-DLRip.. Files-x\01. Тайны следствия .S19.2019. WEB-DLRip.. Files-x.avi
Format : AVI
Format/Info : Audio Video Interleave
File size : 657 MiB
Duration : 50mn 58s
Overall bit rate : 1 802 Kbps
Writing application : VirtualDubMod 1.5.10.3 | www.virtualdub-fr.org || (build 2550/release)
Writing library : VirtualDubMod build 2550/release

Video
ID : 0
Format : MPEG-4 Visual
Format profile : Advanced Simple@L5
Format settings, BVOP : 1
Format settings, QPel : No
Format settings, GMC : No warppoints
Format settings, Matrix : Custom
Codec ID : XVID
Codec ID/Hint : XviD
Duration : 50mn 58s
Bit rate : 1 600 Kbps
Width : 720 pixels
Height : 400 pixels
Display aspect ratio : 16:9
Frame rate : 25.000 fps
Color space : YUV
Chroma subsampling : 4:2:0
Bit depth : 8 bits
Scan type : Progressive
Compression mode : Lossy
Bits/(Pixel*Frame) : 0.222
Stream size : 583 MiB (89%)
Writing library : XviD 73

Audio
ID : 1
Format : AC-3
Format/Info : Audio Coding 3
Mode extension : CM (complete main)
Codec ID : 2000
Duration : 50mn 58s
Bit rate mode : Constant
Bit rate : 192 Kbps
Channel(s) : 2 channels
Channel positions : Front: L R
Sampling rate : 48.0 KHz
Bit depth : 16 bits
Compression mode : Lossy
Stream size : 70.0 MiB (11%)
Alignment : Split accross interleaves
Interleave, duration : 40 ms (1.00 video frame)
Interleave, preload duration : 500 ms

Внимание! Раздача ведётся путём добавления новых серий; при каждом добавлении создаётся новый торрент. Чтобы начать докачку новой серии, пользователям необходимо сделать следующее:
(1) остановить скачивание,
(2) удалить старый торрент у себя из клиента (старые серии удалять не надо),
(3) скачать новый торрент и запустить его у себя в клиенте вместо старого, при этом указать клиенту путь в старую папку куда и должно происходить скачивание новых серий.

Ваш клиент при этом должен произвести хеширование (проверку) старой папки (если не производит сам - помогите ему сделать это), и будет докачивать только те серии которых у вас ещё нет. Старые серии при этом не удаляются, а продолжают раздаваться!

Eсли вы уже удалили старые серии, то предотвратить повторную закачку старых серий можно, отжав галочку в соответсвующих местах при запуске нового торрента. По возможности, желательно не удалять старые серии как можно дольше чтобы релизёр не столько продолжал раздавать старые серии, а смог сконцентрироваться на новых.
pb.wtf



Скачать Тайны следствия через торрент https://i111.fastpic.ru/big/2019/1209/8a/f38909910345960ef84da47cb5eb208a.jpg Скачать фильм Тайны следствия через торрент бесплантно в хорошем качестве Описание: Строгая и обаятельная Мария Сергеевна Швецова продолжает работать в Следственном комитете. После расставания с хирургом Солнцевым ... 10 10 4
Торрент: Зарегистрирован [2019-12-27 23:07] · скачан: 4 раз
Статус: √ проверено
Размер: 15.58 GB
Как cкачать? Как скачать Тайны следствия через торрент | qTorrent

% Раздел Тема Автор DL S | L
Наши сериалы [ 16.27 GB ] Тайны следствия / Сезон: 19 / Серии: 1-24 из 24 [2019 HDTVRip] bober100 Скачать
2 | 0
Наши сериалы [ 14.56 GB ] Тайны следствия / Сезон: 19 / Серии: 1-24 из 24 [2019 SATRip-AVC] aleksan55 Скачать
1 | 1
Наши сериалы [ 31.61 GB ] Тайны следствия / Сезон: 19 / Серии: 1-24 из 24 [2019 HDTVRip 720p] bober100 Скачать
1 | 0
Наши сериалы [ 65.48 GB ] Тайны следствия / Сезон: 19 / Серии: 1-24 из 24 [2019 HDTV 1080i] bober100 Скачать
1 | 0
Наши сериалы [ 15.52 GB ] Тайны следствия / Сезон: 19 / Серии: 1-24 из 24 [2019 WEBRip-AVC] bober100 Скачать
1 | 0

28-11-2019 20:33  

Отключить всю рекламу на сайте

    Дорогой пользователь! Огромная просьба, поблагодарите релизера, оцените раздачу и оставьте свои комментарий, если Вы скачали Тайны следствия через торрент бесплатно! Внесите свою лепту в развитие PiratBit!
    Комментировать посты могут только пользователи прошедшие не сложную регистрацию
    Показать сообщения:    

    Тайны следствия через торрент
    Скачать бесплатно Тайны следствия
    Тайны следствия скачать торрент
    Тайны следствия смотреть онлайн
    Cкачать фильм Тайны следствия бесплатно
    Тайны следствия скачать торрент в хорошем качестве
    Тайны следствия смотреть онлайн бесплатно в хорошем качестве


    Вы не можете начинать темы
    Вы не можете отвечать на сообщения
    Вы не можете редактировать свои сообщения
    Вы не можете удалять свои сообщения
    Вы не можете голосовать в опросах
    Вы не можете прикреплять файлы к сообщениям
    Вы можете скачивать файлы