Ссылка на приватное зеркало всего за 1$. Внимание количество ограничено!!!

OK

1+1

iTunes

мы

OK

1

WEB-DLRip

Джокер

Пифагор

Ведьмак / The Witcher сериал

iTunes

ПШазам

ОК

Оно 2

iTunes

30
pack

Вам бонус

ВАЖНО

!!Акция!!

Alien_RageХит недели

RePack

Resident Evil 21

ИГРА 18+

pack

RePack

jed

RePack

fifa19

RePack

Assassins Creed: Odyssey

RePack

NEED FOR SPEED™ PAYBACK

4 сезон

9 сезон

Бесстыжие 9 сезон

Все сериалы

все сериалы на PB.wtf

RePack

FAR CRY 5
  

К звёздам / Ad Astra (Джеймс Грэй) [2019, фантастика, триллер, драма, детектив, приключения, BDRip 720p] DUB (rus, ukr) [iTunes] pb.wtf

К звёздам через торрент pb.wtf

Раздают: 6 [ 1 KB/s ]
Размер: 4.74 GB | Добавлен: 1 мес. 17 д. назад | Торрент скачан:393 раза
Скачать  

10-12-2019 15:16 К звёздам Скачать торрент  

К звёздам / Ad Astra
Год выпуска: 2019
Страна: США, Китай, Бразилия
Студия: New Regency Pictures, Bona Film Group, Keep Your Head
Жанр: фантастика, триллер, драма, детектив, приключения
Продолжительность: 02:03:03
Перевод: Дублированный | iTunes
Субтитры: Русские (Forced, full), украинские (Forced, full), английские

Режиссер: Джеймс Грэй

rating

В ролях:

Брэд Питт (Roy McBride), Томми Ли Джонс (H. Clifford McBride), Рут Негга (Helen Lantos), Дональд Сазерленд (Thomas Pruitt), Кимберли Элиз (Lorraine Deavers), Лорен Дин (Donald Stanford), Донни Кешаварц (Captain Lawrence Tanner), Шон Блейкмор (Willie Levant), Бобби Ниш (Franklin Yoshida), Лиза Гэй Хэмилтон (Adjutant General Vogel), Джон Финн (Brigadier General Stroud), Джон Ортис (Lieutenant General Rivas)
Описание: Недалёкое будущее. Несколько лет назад человечество запустило программу поиска внеземной жизни «Проект «Лима»», во главе которой стоял капитан Клиффорд Макбрайд. Последний сигнал экспедиции был зафиксирован в районе Нептуна, и с тех пор о её судьбе ничего не было известно. Сам капитан Макбрайд стал героем и самым известным космонавтом, вдохновившим многих на исследование космоса. Через 16 лет после исчезновения «Проекта «Лима»» на Земле начинают происходить странные вспышки энергии, выводящие из строя электросистемы и сеящие хаос и разрушения. По данным американского космического агентства сигнал идёт с Нептуна, и теперь сыну знаменитого космонавта, майору Рою Макбрайду, поручается ответственная миссия. Он должен добраться до марсианской базы и оттуда попытаться связаться с предположительно живым отцом.

Качество: BDRip 720p
Формат: MKV

Видео: MPEG-4 AVC, 1280x536, 4327 Kbit/s, 23.976 fps
Аудио #01: 48 kHz, AC3, 5.1, 384 Kbps | iTunes | RUS |
Аудио #02: 48 kHz, AC3, 2.0, 160 Kbps | iTunes | UKR |
Аудио #03: 48 kHz, AC3, 5.1, 640 Kbps | Оригинал | ENG |
скриншот  скриншот  скриншот  скриншот  скриншот  

General
Unique ID : 202647766264156315441674677073127519261 (0x98748A4560E799009DE2189C5801B41D)
Complete name : F:Video111Ad.Astra.2019.BDRip.720p.seleZen.mkv
Format : Matroska
Format version : Version 4
File size : 4.74 GiB
Duration : 2 h 3 min
Overall bit rate : 5 513 kb/s
Movie name : Ad Astra 2019 from селезень
Encoded date : UTC 2019-12-10 14:13:59
Writing application : mkvmerge v40.0.0 ('Old Town Road + Pony') 64-bit
Writing library : libebml v1.3.9 + libmatroska v1.5.2

Video
ID : 1
Format : AVC
Format/Info : Advanced Video Codec
Format profile : High@L4.1
Format settings : CABAC / 12 Ref Frames
Format settings, CABAC : Yes
Format settings, Reference : 12 frames
Codec ID : V_MPEG4/ISO/AVC
Duration : 2 h 3 min
Bit rate : 4 327 kb/s
Width : 1 280 pixels
Height : 536 pixels
Display aspect ratio : 2.40:1
Frame rate mode : Constant
Frame rate : 23.976 (24000/1001) FPS
Color space : YUV
Chroma subsampling : 4:2:0
Bit depth : 8 bits
Scan type : Progressive
Bits/(Pixel*Frame) : 0.263
Stream size : 3.72 GiB (78%)
Title : Encoded by seleZen
Writing library : x264 core 148 r2705kMod 3f5ed56
Encoding settings : cabac=1 / ref=12 / deblock=1:-2:-2 / analyse=0x3:0x113 / me=umh / subme=11 / psy=1 / fade_compensate=0.00 / psy_rd=1.01:0.01 / mixed_ref=1 / me_range=32 / chroma_me=1 / trellis=2 / 8x8dct=1 / cqm=0 / deadzone=21,11 / fast_pskip=0 / chroma_qp_offset=-3 / threads=17 / lookahead_threads=4 / sliced_threads=0 / nr=0 / decimate=0 / interlaced=0 / bluray_compat=0 / constrained_intra=0 / fgo=0 / bframes=10 / b_pyramid=2 / b_adapt=2 / b_bias=0 / direct=3 / weightb=1 / open_gop=0 / weightp=2 / keyint=240 / keyint_min=23 / scenecut=40 / intra_refresh=0 / rc_lookahead=50 / rc=2pass / mbtree=0 / bitrate=4327 / ratetol=1.0 / qcomp=0.60 / qpmin=0 / qpmax=51 / qpstep=4 / cplxblur=20.0 / qblur=0.5 / vbv_maxrate=50000 / vbv_bufsize=62500 / nal_hrd=none / filler=0 / ip_ratio=1.40 / pb_ratio=1.30 / aq=3:0.80
Language : English
Default : Yes
Forced : No

Audio #1
ID : 2
Format : AC-3
Format/Info : Audio Coding 3
Commercial name : Dolby Digital
Codec ID : A_AC3
Duration : 2 h 3 min
Bit rate mode : Constant
Bit rate : 384 kb/s
Channel(s) : 6 channels
Channel layout : L R C LFE Ls Rs
Sampling rate : 48.0 kHz
Frame rate : 31.250 FPS (1536 SPF)
Bit depth : 16 bits
Compression mode : Lossy
Stream size : 338 MiB (7%)
Title : iTunes
Language : Russian
Service kind : Complete Main
Default : Yes
Forced : Yes

Audio #2
ID : 3
Format : AC-3
Format/Info : Audio Coding 3
Commercial name : Dolby Digital
Codec ID : A_AC3
Duration : 2 h 3 min
Bit rate mode : Constant
Bit rate : 160 kb/s
Channel(s) : 2 channels
Channel layout : L R
Sampling rate : 48.0 kHz
Frame rate : 31.250 FPS (1536 SPF)
Bit depth : 16 bits
Compression mode : Lossy
Stream size : 141 MiB (3%)
Title : iTunes
Language : Ukrainian
Service kind : Complete Main
Default : No
Forced : No

Audio #3
ID : 4
Format : AC-3
Format/Info : Audio Coding 3
Commercial name : Dolby Digital
Codec ID : A_AC3
Duration : 2 h 3 min
Bit rate mode : Constant
Bit rate : 640 kb/s
Channel(s) : 6 channels
Channel layout : L R C LFE Ls Rs
Sampling rate : 48.0 kHz
Frame rate : 31.250 FPS (1536 SPF)
Bit depth : 16 bits
Compression mode : Lossy
Stream size : 563 MiB (12%)
Title : Original
Language : English
Service kind : Complete Main
Default : No
Forced : No

Text #1
ID : 5
Format : UTF-8
Codec ID : S_TEXT/UTF8
Codec ID/Info : UTF-8 Plain Text
Duration : 2 h 2 min
Bit rate : 1 b/s
Count of elements : 22
Stream size : 941 Bytes (0%)
Title : Forced
Language : Russian
Default : Yes
Forced : Yes

Text #2
ID : 6
Format : UTF-8
Codec ID : S_TEXT/UTF8
Codec ID/Info : UTF-8 Plain Text
Duration : 2 h 2 min
Bit rate : 68 b/s
Count of elements : 1074
Stream size : 61.6 KiB (0%)
Title : Full
Language : Russian
Default : No
Forced : No

Text #3
ID : 7
Format : UTF-8
Codec ID : S_TEXT/UTF8
Codec ID/Info : UTF-8 Plain Text
Duration : 2 h 2 min
Bit rate : 1 b/s
Count of elements : 27
Stream size : 1.17 KiB (0%)
Title : Forced
Language : Ukrainian
Default : No
Forced : No

Text #4
ID : 8
Format : UTF-8
Codec ID : S_TEXT/UTF8
Codec ID/Info : UTF-8 Plain Text
Duration : 2 h 2 min
Bit rate : 68 b/s
Count of elements : 1082
Stream size : 61.3 KiB (0%)
Title : Full
Language : Ukrainian
Default : No
Forced : No

Text #5
ID : 9
Format : UTF-8
Codec ID : S_TEXT/UTF8
Codec ID/Info : UTF-8 Plain Text
Duration : 1 h 50 min
Bit rate : 50 b/s
Count of elements : 1389
Stream size : 41.1 KiB (0%)
Title : SDH
Language : English
Default : No
Forced : No

Menu
00:00:00.000 : en:Chapter 01
00:04:22.679 : en:Chapter 02
00:08:48.695 : en:Chapter 03
00:16:25.776 : en:Chapter 04
00:22:33.811 : en:Chapter 05
00:30:08.515 : en:Chapter 06
00:35:08.273 : en:Chapter 07
00:40:33.348 : en:Chapter 08
00:44:45.391 : en:Chapter 09
00:48:56.809 : en:Chapter 10
00:53:51.812 : en:Chapter 11
00:56:43.775 : en:Chapter 12
01:01:31.897 : en:Chapter 13
01:07:23.873 : en:Chapter 14
01:12:12.411 : en:Chapter 15
01:16:59.114 : en:Chapter 16
01:21:35.182 : en:Chapter 17
01:24:42.661 : en:Chapter 18
01:31:16.554 : en:Chapter 19
01:36:27.031 : en:Chapter 20
01:40:59.595 : en:Chapter 21
01:46:26.589 : en:Chapter 22
01:50:00.052 : en:Chapter 23
01:53:17.791 : en:Chapter 24

pb.wtf



Скачать К звёздам через торрент https://img16.lostpic.net/2019/12/06/41213a85dfb0cb8fbb569be8f39c4389.jpg Скачать фильм К звёздам через торрент бесплантно в хорошем качестве Описание: Недалёкое будущее. Несколько лет назад человечество запустило программу поиска внеземной жизни «Проект «Лима»», во главе которой ... 10 10 6
Info! Золотая раздача, скачанное не засчитывается.
Торрент: Зарегистрирован [2019-12-10 15:16] · скачан: 393 раз
Статус: √ проверено
Размер: 4.74 GB
Как cкачать? Как скачать К звёздам через торрент | qTorrent

% Раздел Тема Автор DL S | L
Фильмы 2019-2020 [DVDrip, WEB-DLRip, HDrip] (DUB, MVO) [ 1.86 GB ] К звёздам / Ad Astra [2019 WEB-DLRip-AVC] bober100 Скачать
13 | 0
Фильмы 2019-2020 [DVDrip, WEB-DLRip, HDrip] (DUB, MVO) [ 752 MB ] К звёздам / Ad Astra [2019 BDRip] bober100 Скачать
2 | 0
Фильмы 2019-2020 [DVDrip, WEB-DLRip, HDrip] (DUB, MVO) [ 2.13 GB ] К звёздам / Ad Astra [2019 BDRip] - Twi7ter Скачать
143 | 6
Фильмы 2019-2020 [DVDrip, WEB-DLRip, HDrip] (DUB, MVO) [ 1.46 GB ] К звёздам / Ad Astra [2019 BDRip] - Twi7ter Скачать
140 | 10
Фильмы 2019-2020 [DVDrip, WEB-DLRip, HDrip] (DUB, MVO) [ 1.46 GB ] К звёздам / Ad Astra [2019 BDRip] bober100 Скачать
2 | 0
Фильмы 2019-2020 [DVDrip, WEB-DLRip, HDrip] (DUB, MVO) [ 2.13 GB ] К звёздам / Ad Astra [2019 BDRip] bober100 Скачать
3 | 0
Фильмы (Blu-ray, BD-Remux, HDDVD) [ 27.57 GB ] К звёздам / Ad Astra [2019 BD Remux 1080p] DUB bober100 Скачать
3 | 0

28-11-2019 20:33  

Отключить всю рекламу на сайте


17-12-2019 13:00 К звёздам Скачать торрент  

Скучный фильм, где весь акцент на громкие имена актеровpb.wtf



    Дорогой пользователь! Огромная просьба, поблагодарите релизера, оцените раздачу и оставьте свои комментарий, если Вы скачали К звёздам через торрент бесплатно! Внесите свою лепту в развитие PiratBit!
    Комментировать посты могут только пользователи прошедшие не сложную регистрацию
    Показать сообщения:    

    К звёздам через торрент
    Скачать бесплатно К звёздам
    К звёздам скачать торрент
    К звёздам смотреть онлайн
    Cкачать фильм К звёздам бесплатно
    К звёздам скачать торрент в хорошем качестве
    К звёздам смотреть онлайн бесплатно в хорошем качестве


    Вы не можете начинать темы
    Вы не можете отвечать на сообщения
    Вы не можете редактировать свои сообщения
    Вы не можете удалять свои сообщения
    Вы не можете голосовать в опросах
    Вы не можете прикреплять файлы к сообщениям
    Вы можете скачивать файлы