Ссылка на приватное зеркало всего за 1$. Внимание количество ограничено!!!

OK

1+1

iTunes

мы

OK

1

WEB-DLRip

Джокер

Пифагор

Ведьмак / The Witcher сериал

Лицензия

ПШазам

ОК

Оно 2

iTunes

30
pack

Вам бонус

ВАЖНО

!!Акция!!

Alien_RageХит недели

RePack

Resident Evil 21

ИГРА 18+

pack

RePack

jed

RePack

fifa19

RePack

Assassins Creed: Odyssey

RePack

NEED FOR SPEED™ PAYBACK

4 сезон

9 сезон

Бесстыжие 9 сезон

Все сериалы

все сериалы на PB.wtf

RePack

FAR CRY 5
  

По правде говоря / Truth Be Told / Сезон: 1 / Серии: 1-8 из 8 (Сара Пиа Андерсон, Миккель Нёргор, Такер Гейтс) [2019, Триллер, драма, криминал, WEB-DLRip] MVO [Jaskier] pb.wtf

По правде говоря через торрент pb.wtf

Размер: 4.56 GB | Добавлен: 6 д. назад | Торрент скачан:14 раз
Скачать  

10-12-2019 15:47 По правде говоря Скачать торрент  

По правде говоря / Truth Be Told
Год выпуска: 2019
Страна: США
Жанр: Триллер, драма, криминал
Продолжительность: ~ 00:45:00
Перевод: Профессиональный (многоголосый) | Jaskier
Субтитры: отсутствуют

Режиссер: Сара Пиа Андерсон, Миккель Нёргор, Такер Гейтс

rating

В ролях: Октавия Спенсер, Майкл Бич, Моник Капельта, Лиззи Каплан, Хантер Дуэн, Рон Сефас Джонс, Аарон Пол, Элизабет Перкинс, Мекхай Файфер, Трэйси Томс

Описание: Автор подкастов Поппи Парнелл в свое время прославилась на всю страну, раскрыв громкое убийство. Но в деле всплывают новые улики, и теперь ей не избежать встречи с Уорреном Кейвом, который, возможно, оказался за решеткой из-за ее ошибки.

Качество: WEB-DLRip
Формат: AVI

Видео: XviD, ~ 1400 kbps, 704x320, 23.976 fps
Аудио#1: MP3, 48,0 КГц, 2 ch, 128 kbps - RUS
Аудио#2: MP3, 48,0 КГц, 2 ch, 128 kbps - ENG
скриншот  скриншот  скриншот  скриншот  скриншот  

Общее
Полное имя : D:\Truth.Be.Told. Season 1 (400p l Jaskier)\Truth.Be.Told.S01E01.400p.Jaskier.avi
Формат : AVI
Формат/Информация : Audio Video Interleave
Размер файла : 546 Мбайт
Продолжительность : 45 м. 39 с.
Общий поток : 1673 Кбит/сек
Программа кодирования : VirtualDubMod 1.5.10.3 | www.virtualdub-fr.org || (build 2550/release)
Библиотека кодирования : VirtualDubMod build 2550/release

Видео
Идентификатор : 0
Формат : MPEG-4 Visual
Профиль формата : Advanced Simple@L5
Параметр BVOP формата : 2
Параметр QPel формата : Нет
Параметр GMC формата : Без точки перехода
Параметр матрицы формата : Выборочная
Идентификатор кодека : XVID
Идентификатор кодека/Подсказка : XviD
Продолжительность : 45 м. 39 с.
Битрейт : 1403 Кбит/сек
Ширина : 704 пикселя
Высота : 320 пикселей
Соотношение сторон : 2,2:1
Частота кадров : 23,976 (23976/1000) кадра/сек
Цветовое пространство : YUV
Субдискретизация насыщенности : 4:2:0
Битовая глубина : 8 бит
Тип развёртки : Прогрессивная
Метод сжатия : С потерями
Бит/(Пиксели*Кадры) : 0.260
Размер потока : 458 Мбайт (84%)
Библиотека кодирования : XviD 73

Аудио #1
Идентификатор : 1
Формат : MPEG Audio
Версия формата : Version 1
Профиль формата : Layer 3
Режим : Joint stereo
Расширение режима : MS Stereo
Идентификатор кодека : 55
Идентификатор кодека/Подсказка : MP3
Продолжительность : 45 м. 39 с.
Вид битрейта : Постоянный
Битрейт : 128 Кбит/сек
Каналы : 2 канала
Частота : 48,0 КГц
Метод сжатия : С потерями
Размер потока : 41,8 Мбайт (8%)
Выравнивание : Соединение по промежуткам
Продолжительность промежутка : 42 мс. (1,00 видеокадр)
Время предзагрузки промежутка : 504 мс.

Аудио #2
Идентификатор : 2
Формат : MPEG Audio
Версия формата : Version 1
Профиль формата : Layer 3
Режим : Joint stereo
Идентификатор кодека : 55
Идентификатор кодека/Подсказка : MP3
Продолжительность : 45 м. 39 с.
Вид битрейта : Постоянный
Битрейт : 128 Кбит/сек
Каналы : 2 канала
Частота : 48,0 КГц
Метод сжатия : С потерями
Размер потока : 41,8 Мбайт (8%)
Выравнивание : Соединение по промежуткам
Продолжительность промежутка : 42 мс. (1,00 видеокадр)
Время предзагрузки промежутка : 504 мс.

Внимание! Раздача ведётся путём добавления новых серий; при каждом добавлении создfётся новый торрент. Чтобы начать докачку новой серии, пользователям необходимо сделать следующее: (1) остановить скачивание, (2) удалить старый торрент у себя из клиента (старые серии удалять не надо), (3) скачать новый торрент и запустить его у себя в клиенте вместо старого, при этом указать клиенту путь в старую папку куда и должно происходить скачивание новых серий.

Ваш клиент при этом должен произвести хеширование (проверку) старой папки (если не производит сам - помогите ему сделать это), и будет докачивать только те серии которых у вас ещё нет. Старые серии при этом не удаляются, а продолжают раздаваться!

Eсли вы уже удалили старые серии, то предотвратить повторную закачку старых серий можно, отжав галочку в соответсвующих местах при запуске нового торрента.
pb.wtf



Скачать По правде говоря через торрент https://i111.fastpic.ru/big/2019/1210/3a/38747aa5ee197c1c2cdcc5e24abb703a.png Скачать фильм По правде говоря через торрент бесплантно в хорошем качестве Описание: Автор подкастов Поппи Парнелл в свое время прославилась на всю страну, раскрыв громкое убийство. Но в деле всплывают новые улики, ... 10 10 3
Торрент: Зарегистрирован [2020-01-17 04:15] · скачан: 14 раз
Статус: √ проверено
Размер: 4.56 GB
Как cкачать? Как скачать По правде говоря через торрент | qTorrent

% Раздел Тема Автор DL S | L
Зарубежные сериалы [ 27.31 GB ] По правде говоря / Truth Be Told / Сезон: 1 / Серии: 1-8 из 8 [2019 WEBRip 1080p] MVO [TVShows] bober100 Скачать
1 | 0
Зарубежные сериалы [ 8.92 GB ] По правде говоря / Truth Be Told / Сезон: 1 / Серии: 1-8 из 8 [2019 WEB-DL 720p] MVO [Jaskier] bober100 Скачать
3 | 1

28-11-2019 20:33  

Отключить всю рекламу на сайте

    Дорогой пользователь! Огромная просьба, поблагодарите релизера, оцените раздачу и оставьте свои комментарий, если Вы скачали По правде говоря через торрент бесплатно! Внесите свою лепту в развитие PiratBit!
    Комментировать посты могут только пользователи прошедшие не сложную регистрацию
    Показать сообщения:    

    По правде говоря через торрент
    Скачать бесплатно По правде говоря
    По правде говоря скачать торрент
    По правде говоря смотреть онлайн
    Cкачать фильм По правде говоря бесплатно
    По правде говоря скачать торрент в хорошем качестве
    По правде говоря смотреть онлайн бесплатно в хорошем качестве


    Вы не можете начинать темы
    Вы не можете отвечать на сообщения
    Вы не можете редактировать свои сообщения
    Вы не можете удалять свои сообщения
    Вы не можете голосовать в опросах
    Вы не можете прикреплять файлы к сообщениям
    Вы можете скачивать файлы