Ссылка на приватное зеркало всего за 1$. Внимание количество ограничено!!!

OK

1+1

iTunes

мы

OK

1

WEB-DLRip

Джокер

Пифагор

Ведьмак / The Witcher сериал

Лицензия

ПШазам

ОК

Оно 2

iTunes

30
pack

Вам бонус

ВАЖНО

!!Акция!!

Alien_RageХит недели

RePack

Resident Evil 21

ИГРА 18+

pack

RePack

jed

!!Акция!!

Alien_Rage

RePack

fifa19

RePack

Assassins Creed: Odyssey

RePack

NEED FOR SPEED™ PAYBACK

4 сезон

9 сезон

Бесстыжие 9 сезон

Все сериалы

все сериалы на PB.wtf

RePack

FAR CRY 5
  

Паразит 3Д / Parasite 3D (Чарльз Бэнд) [1982, ужасы, фантастика, BDRip 1080p] [Half OverUnder] 2xAVO pb.wtf

Паразит 3Д через торрент pb.wtf

Размер: 11.5 GB | Добавлен: 1 мес. 10 д. назад | Торрент скачан:3 раза
Скачать  

10-12-2019 18:21 Паразит 3Д Скачать торрент  

Паразит 3Д / Parasite 3D«Попав внутрь вас, он сделает всё, чтобы выбраться!»
Год выпуска: 1982
Страна: США
Жанр: ужасы, фантастика
Продолжительность: 01:24:35
Перевод 1: Авторский (одноголосый) | Сергей Кузнецов
Перевод 2: Авторский (одноголосый) | Михаил Иванов
Субтитры: Внешние SRT UTF-8 English Full

Режиссер: Чарльз Бэнд

rating

В ролях: Роберт Глаудини (Dr. Paul Dean), Деми Мур (Patricia Welles), Лука Берковичи (Ricus), Джеймс Дэвидсон (Wolf the Merchant), Эл Фэнн (Collins), Том Виллард (Zeke), Скотт Томсон (Chris), Чери Карри (Dana), Вивиан Блейн (Miss Elizabeth Daley), Джеймс Каван (Buddy), Joanelle Romero (Bo), Фредди Мур (Arn), Натали Мэй (Shell), Шерил Смит (Captive Girl), Джоэль Миллер (Town Punk)

Описание: Недалёкое постапокалиптическое будущее. В маленьком городке появляется доктор Пол Дин, заражённый собственным созданием — смертельным слизняком-паразитом. За ним охотится Вольф, представитель властей, для которых был создан паразит, и от которых сбежал Пол. После нападения на доктора местной банды, на свободу вырвался ещё один слизняк. Помочь доктору Дину вызывается молодая симпатичная девушка Патриция Уэллс.

Качество: BDRip 1080p
Формат: MKV

Видео: AVC / 1920х1080p / 23,976 fps / 18.0 Mbps
Аудио#1: Русский / AC3 / 48 KHz / 5.1 ch / 640 Kbps (AVO - С. Кузнецов)
Аудио#2: Русский / AC3 / 48 KHz / 2.0 ch / 192 Kbps (AVO - М. Иванов)
Аудио#3: Английский / AC3 / 48 KHz / 5.1 ch / 640 Kbps (Original - BD 3D)
Формат 3D: Half OverUnder / Вертикальная анаморфная стереопара
Порядок ракурсов: левый ракурс первый
скриншот  скриншот  скриншот  скриншот  скриншот  

скриншот  скриншот  скриншот  скриншот  скриншот  

General
Unique ID : 204382793631724897845541739347235097866 (0x99C2B1B988E53EA8AEAED0D8E880CD0A)
Complete name : D:Parasite(1982)3D-hOU(Ash61)VOx2Parasite(1982)3D-hOU(Ash61)VOx2.mkv
Format : Matroska
Format version : Version 2
File size : 11.5 GiB
Duration : 1 h 24 min
Overall bit rate : 19.5 Mb/s
Movie name : Паразит / Parasite (1982) in 3D
Encoded date : UTC 2019-12-10 13:38:32
Writing application : mkvmerge v5.8.0 ('No Sleep / Pillow') built on Sep 2 2012 15:37:04
Writing library : libebml v1.2.3 + libmatroska v1.3.0

Video
ID : 1
Format : AVC
Format/Info : Advanced Video Codec
Format profile : High@L4.1
Format settings : CABAC / 4 Ref Frames
Format settings, CABAC : Yes
Format settings, Reference : 4 frames
Codec ID : V_MPEG4/ISO/AVC
Duration : 1 h 24 min
Bit rate : 18.0 Mb/s
Width : 1 920 pixels
Height : 1 080 pixels
Display aspect ratio : 16:9
Frame rate mode : Constant
Frame rate : 23.976 (24000/1001) FPS
Color space : YUV
Chroma subsampling : 4:2:0
Bit depth : 8 bits
Scan type : Progressive
Bits/(Pixel*Frame) : 0.362
Stream size : 10.4 GiB (90%)
Title : BDRip by Ash61
Writing library : x264 core 146 r2538 121396c
Encoding settings : cabac=1 / ref=4 / deblock=1:-3:-3 / analyse=0x3:0x113 / me=umh / subme=10 / psy=1 / psy_rd=1.00:0.00 / mixed_ref=1 / me_range=32 / chroma_me=1 / trellis=2 / 8x8dct=1 / cqm=0 / deadzone=21,11 / fast_pskip=0 / chroma_qp_offset=-2 / threads=12 / lookahead_threads=3 / sliced_threads=0 / nr=0 / decimate=0 / interlaced=0 / bluray_compat=0 / constrained_intra=0 / bframes=12 / b_pyramid=2 / b_adapt=2 / b_bias=0 / direct=3 / weightb=1 / open_gop=0 / weightp=2 / keyint=250 / keyint_min=23 / scenecut=40 / intra_refresh=0 / rc_lookahead=60 / rc=2pass / mbtree=0 / bitrate=18000 / ratetol=1.0 / qcomp=0.70 / qpmin=0 / qpmax=69 / qpstep=4 / cplxblur=20.0 / qblur=0.5 / vbv_maxrate=40000 / vbv_bufsize=30000 / nal_hrd=none / filler=0 / frame-packing=4 / ip_ratio=1.40 / pb_ratio=1.30 / aq=1:0.70
Language : English
Default : Yes
Forced : No

Audio #1
ID : 2
Format : AC-3
Format/Info : Audio Coding 3
Commercial name : Dolby Digital
Codec ID : A_AC3
Duration : 1 h 24 min
Bit rate mode : Constant
Bit rate : 640 kb/s
Channel(s) : 6 channels
Channel layout : L R C LFE Ls Rs
Sampling rate : 48.0 kHz
Frame rate : 31.250 FPS (1536 SPF)
Compression mode : Lossy
Stream size : 387 MiB (3%)
Title : Одноголосый закадровый - Сергей Кузнецов
Language : Russian
Service kind : Complete Main
Default : Yes
Forced : No

Audio #2
ID : 3
Format : AC-3
Format/Info : Audio Coding 3
Commercial name : Dolby Digital
Codec ID : A_AC3
Duration : 1 h 24 min
Bit rate mode : Constant
Bit rate : 192 kb/s
Channel(s) : 2 channels
Channel layout : L R
Sampling rate : 48.0 kHz
Frame rate : 31.250 FPS (1536 SPF)
Compression mode : Lossy
Stream size : 116 MiB (1%)
Title : Одноголосый закадровый - Михаил Иванов
Language : Russian
Service kind : Complete Main
Default : No
Forced : No

Audio #3
ID : 4
Format : AC-3
Format/Info : Audio Coding 3
Commercial name : Dolby Digital
Codec ID : A_AC3
Duration : 1 h 24 min
Bit rate mode : Constant
Bit rate : 640 kb/s
Channel(s) : 6 channels
Channel layout : L R C LFE Ls Rs
Sampling rate : 48.0 kHz
Frame rate : 31.250 FPS (1536 SPF)
Compression mode : Lossy
Stream size : 387 MiB (3%)
Title : Original (BD 3D)
Language : English
Service kind : Complete Main
Default : No
Forced : No

Menu
00:00:00.000 : :1
00:07:25.987 : :2
00:16:09.886 : :3
00:22:52.621 : :4
00:29:28.016 : :5
00:37:49.476 : :6
00:46:40.506 : :7
00:55:11.141 : :8
01:02:51.059 : :9
01:12:27.510 : :10
01:20:26.572 : :11

pb.wtf



Скачать Паразит 3Д через торрент https://c.radikal.ru/c25/1912/37/c39d564dfeec.png Скачать фильм Паразит 3Д через торрент бесплантно в хорошем качестве Описание: Недалёкое постапокалиптическое будущее. В маленьком городке появляется доктор Пол Дин, заражённый собственным созданием — ... 10 10 3
Торрент: Зарегистрирован [2019-12-10 18:21] · скачан: 3 раз
Статус: √ проверено
Размер: 11.5 GB
Как cкачать? Как скачать Паразит 3Д через торрент | qTorrent

28-11-2019 20:33  

Отключить всю рекламу на сайте

    Дорогой пользователь! Огромная просьба, поблагодарите релизера, оцените раздачу и оставьте свои комментарий, если Вы скачали Паразит 3Д через торрент бесплатно! Внесите свою лепту в развитие PiratBit!
    Комментировать посты могут только пользователи прошедшие не сложную регистрацию
    Показать сообщения:    

    Паразит 3Д через торрент
    Скачать бесплатно Паразит 3Д
    Паразит 3Д скачать торрент
    Паразит 3Д смотреть онлайн
    Cкачать фильм Паразит 3Д бесплатно
    Паразит 3Д скачать торрент в хорошем качестве
    Паразит 3Д смотреть онлайн бесплатно в хорошем качестве


    Вы не можете начинать темы
    Вы не можете отвечать на сообщения
    Вы не можете редактировать свои сообщения
    Вы не можете удалять свои сообщения
    Вы не можете голосовать в опросах
    Вы не можете прикреплять файлы к сообщениям
    Вы можете скачивать файлы