Ссылка на приватное зеркало всего за 1$. Внимание количество ограничено!!!

OK

1+1

iTunes

мы

OK

1

WEB-DLRip

Джокер

Пифагор

Ведьмак / The Witcher сериал

iTunes

ПШазам

ОК

Оно 2

iTunes

30
pack

Вам бонус

ВАЖНО

!!Акция!!

Alien_RageХит недели

RePack

Resident Evil 21

ИГРА 18+

pack

RePack

jed

RePack

fifa19

RePack

Assassins Creed: Odyssey

RePack

NEED FOR SPEED™ PAYBACK

4 сезон

9 сезон

Бесстыжие 9 сезон

Все сериалы

все сериалы на PB.wtf

RePack

FAR CRY 5
  

Последнее слово / The Last Word (Марк Пеллингтон) [2017, драма, мелодрама, BDRip] MVO [iTunes] pb.wtf

Последнее слово через торрент pb.wtf

Размер: 1.45 GB | Добавлен: 1 мес. 14 д. назад | Торрент скачан:16 раз
Скачать  

10-12-2019 18:39 Последнее слово Скачать торрент  

Последнее слово / The Last Word
Год выпуска: 2017
Страна: США
Жанр: драма, мелодрама
Продолжительность: 01:48:09
Перевод: Профессиональный (многоголосый) | iTunes
Субтитры: Нет

Режиссер: Марк Пеллингтон

rating

В ролях: Ширли МакЛейн, Аманда Сайфред, Энн Ли Диксон, Томас Садоски, Филип Бейкер Холл, Гедде Ватанабэ, Том Эверетт Скотт, Джоэль Мюррей

Описание: Гарриет — успешная бизнесвумен, которая всегда держала жесткий контроль над каждым аспектом своей жизни. Когда она размышляет о своих достижениях, она решает подключить молодую местную писательницу Энн Шерман для описания своей жизни. Если первоначальный результат не соответствует высоким ожиданиям Гарриет, то она изменяет свои воспоминания, но Энн не хочет быть к этому причастна. Как разворачивается история, так две женщины развивают уникальную связь, которая изменяет не только наследие Гарриет, но и будущее Энн...

Качество: BDRip
Формат: AVI

Видео: Xvid 73, 720x304, ~1521 kbps, 23,976 fps
Аудио: русский, AC3, 5.1 ch, 48 kHz, 384 kbps | iTunes
скриншот  скриншот  скриншот  скриншот  скриншот  

Общее
Полное имя : G:Torrent2PosledneeSlovoBDRip.avi
Формат : AVI
Формат/Информация : Audio Video Interleave
Профиль формата : OpenDML
Размер файла : 1,45 Гбайт
Продолжительность : 1 ч. 48 м.
Общий поток : 1917 Кбит/сек
Программа кодирования : XviD4PSP 6.0 / 53.6.0

Видео
Идентификатор : 0
Формат : MPEG-4 Visual
Профиль формата : Advanced Simple@L5
Настройки формата : BVOP1 / Custom Matrix
Параметр BVOP формата : 1
Параметр QPel формата : Нет
Параметр GMC формата : Без точки перехода
Параметр матрицы формата : Выборочная
Идентификатор кодека : XVID
Идентификатор кодека/Подсказка : XviD
Продолжительность : 1 ч. 48 м.
Битрейт : 1521 Кбит/сек
Ширина : 720 пикселей
Высота : 304 пикселя
Соотношение сторон : 2,35:1
Частота кадров : 23,976 (23976/1000) кадра/сек
Цветовое пространство : YUV
Субдискретизация насыщенности : 4:2:0
Битовая глубина : 8 бит
Тип развёртки : Прогрессивная
Метод сжатия : С потерями
Бит/(Пиксели*Кадры) : 0.290
Размер потока : 1,15 Гбайт (79%)
Библиотека кодирования : XviD 73

Аудио
Идентификатор : 1
Формат : AC-3
Формат/Информация : Audio Coding 3
Параметр Endianness формата : Big
Идентификатор кодека : 2000
Продолжительность : 1 ч. 48 м.
Вид битрейта : Постоянный
Битрейт : 384 Кбит/сек
Каналы : 6 каналов
Расположение каналов : Front: L C R, Side: L R, LFE
Частота : 48,0 КГц
Частота кадров : 31,250 кадров/сек (1536 SPF)
Битовая глубина : 16 бит
Метод сжатия : С потерями
Размер потока : 297 Мбайт (20%)
Выравнивание : Соединение по промежуткам
Продолжительность промежутка : 32 мс. (0,77 видеокадр)

pb.wtf



Скачать Последнее слово через торрент https://i111.fastpic.ru/big/2019/1210/34/39bddd0e7d899638d2947112581e9c34.png Скачать фильм Последнее слово через торрент бесплантно в хорошем качестве Описание: Гарриет — успешная бизнесвумен, которая всегда держала жесткий контроль над каждым аспектом своей жизни. Когда она размышляет о ... 10 10 2
Торрент: Зарегистрирован [2019-12-10 18:39] · скачан: 16 раз
Статус: √ проверено
Размер: 1.45 GB
Как cкачать? Как скачать Последнее слово через торрент | qTorrent

% Раздел Тема Автор DL S | L
Фильмы [HD 720p, 1080p] (Хороший звук DUB, MVO) [ 6.98 GB ] Последнее слово / The Last Word [2017 BDRip 1080p] MVO bober100 Скачать
1 | 0
Фильмы [HD 720p, 1080p] (Хороший звук DUB, MVO) [ 3.62 GB ] Последнее слово / The Last Word [2017 BDRip 720p] MVO bober100 Скачать
1 | 0
Фильмы [HD 720p, 1080p] (Хороший звук DUB, MVO) [ 28.8 GB ] Последнее слово / The Last Word [2017 BD Remux 1080p] 2xMVO [СВ Студия FOX] bober100 Скачать
1 | 0
Фильмы 2017 [DVDrip, WEB-DLRip, HDrip] (DUB, MVO) [ 1.46 GB ] Последнее слово / The Last Word [2017 BDRip] MVO [СВ Студия] bober100 Скачать
2 | 0
Фильмы [HD 720p, 1080p] (Хороший звук DUB, MVO) [ 9.98 GB ] Последнее слово / The Last Word [2017 BDRip 1080p] [MVO] killermax2013 Скачать
1 | 0
Фильмы 2017 [DVDrip, WEB-DLRip, HDrip] (DUB, MVO) [ 1.46 GB ] Последнее слово / The Last Word [2017 HDRip] [MVO] killermax2013 Скачать
1 | 0
Фильмы без перевода [ 26.2 GB ] Последнее слово / The Last Word [2017 BD Remux] [Оригинал-ENG] smaster Скачать
1 | 0

28-11-2019 20:33  

Отключить всю рекламу на сайте

    Дорогой пользователь! Огромная просьба, поблагодарите релизера, оцените раздачу и оставьте свои комментарий, если Вы скачали Последнее слово через торрент бесплатно! Внесите свою лепту в развитие PiratBit!
    Комментировать посты могут только пользователи прошедшие не сложную регистрацию
    Показать сообщения:    

    Последнее слово через торрент
    Скачать бесплатно Последнее слово
    Последнее слово скачать торрент
    Последнее слово смотреть онлайн
    Cкачать фильм Последнее слово бесплатно
    Последнее слово скачать торрент в хорошем качестве
    Последнее слово смотреть онлайн бесплатно в хорошем качестве


    Вы не можете начинать темы
    Вы не можете отвечать на сообщения
    Вы не можете редактировать свои сообщения
    Вы не можете удалять свои сообщения
    Вы не можете голосовать в опросах
    Вы не можете прикреплять файлы к сообщениям
    Вы можете скачивать файлы