Ссылка на приватное зеркало всего за 1$. Внимание количество ограничено!!!

OK

1+1

iTunes

мы

OK

1

WEB-DLRip

Джокер

Пифагор

Ведьмак / The Witcher сериал

iTunes

ПШазам

ОК

Оно 2

iTunes

30
pack

Вам бонус

ВАЖНО

!!Акция!!

Alien_RageХит недели

RePack

Resident Evil 21

ИГРА 18+

pack

RePack

jed

RePack

fifa19

RePack

Assassins Creed: Odyssey

RePack

NEED FOR SPEED™ PAYBACK

4 сезон

9 сезон

Бесстыжие 9 сезон

Все сериалы

все сериалы на PB.wtf

RePack

FAR CRY 5
  

Последнее слово / The Last Word (Марк Пеллингтон) [2017, драма, мелодрама, BDRip 1080p] MVO [iTunes] pb.wtf

Последнее слово через торрент pb.wtf

Размер: 6.98 GB | Добавлен: 1 мес. 14 д. назад | Торрент скачан:13 раз
Скачать  

10-12-2019 18:39 Последнее слово Скачать торрент  

Последнее слово / The Last Word
Год выпуска: 2017
Страна: США
Жанр: драма, мелодрама
Продолжительность: 01:48:09
Перевод: Профессиональный (многоголосый) | iTunes
Субтитры: русские (полные), английские (полные)

Режиссер: Марк Пеллингтон

rating

В ролях: Ширли МакЛейн, Аманда Сайфред, Энн Ли Диксон, Томас Садоски, Филип Бейкер Холл, Гедде Ватанабэ, Том Эверетт Скотт, Джоэль Мюррей

Описание: Гарриет — успешная бизнесвумен, которая всегда держала жесткий контроль над каждым аспектом своей жизни. Когда она размышляет о своих достижениях, она решает подключить молодую местную писательницу Энн Шерман для описания своей жизни. Если первоначальный результат не соответствует высоким ожиданиям Гарриет, то она изменяет свои воспоминания, но Энн не хочет быть к этому причастна. Как разворачивается история, так две женщины развивают уникальную связь, которая изменяет не только наследие Гарриет, но и будущее Энн...

Качество: BDRip 1080p
Формат: MKV

Видео: MPEG-4 AVC, 1920x800, 8412 kbps, 23,976 fps
Аудио#1: русский, AC3, 5.1 ch, 48 kHz, 384 kbps | iTunes
Аудио#2: английский, AC3, 5.1 ch, 48 kHz, 448 kbps | Оригинал
скриншот  скриншот  скриншот  скриншот  скриншот  

Общее
Уникальный идентификатор : 231786171973022211653800653580873120694 (0xAE6064970BADEDA3B0C6BC0F6A0A3BB6)
Полное имя : G:Torrent2PosledneeSlovoBDRip1080p.mkv
Формат : Matroska
Версия формата : Version 4 / Version 2
Размер файла : 6,98 Гбайт
Продолжительность : 1 ч. 48 м.
Общий поток : 9239 Кбит/сек
Дата кодирования : UTC 2019-12-10 16:57:29
Программа кодирования : mkvmerge v9.5.0 ('Quiet Fire') 64bit
Библиотека кодирования : libebml v1.3.4 + libmatroska v1.4.5

Видео
Идентификатор : 1
Формат : AVC
Формат/Информация : Advanced Video Codec
Профиль формата : High@L4.1
Настройки формата : CABAC / 5 Ref Frames
Параметр CABAC формата : Да
Параметр RefFrames формата : 5 кадров
Идентификатор кодека : V_MPEG4/ISO/AVC
Продолжительность : 1 ч. 48 м.
Битрейт : 8412 Кбит/сек
Ширина : 1920 пикселей
Высота : 800 пикселей
Соотношение сторон : 2,40:1
Режим частоты кадров : Постоянный
Частота кадров : 23,976 (24000/1001) кадра/сек
Цветовое пространство : YUV
Субдискретизация насыщенности : 4:2:0
Битовая глубина : 8 бит
Тип развёртки : Прогрессивная
Бит/(Пиксели*Кадры) : 0.228
Размер потока : 6,35 Гбайт (91%)
Заголовок : Sisendrovich(R)
Библиотека кодирования : x264 core 157 r2958 57baac4
Настройки программы : cabac=1 / ref=5 / deblock=1:-1:-1 / analyse=0x3:0x133 / me=tesa / subme=11 / psy=1 / psy_rd=1.05:0.10 / mixed_ref=1 / me_range=32 / chroma_me=1 / trellis=2 / 8x8dct=1 / cqm=0 / deadzone=21,11 / fast_pskip=0 / chroma_qp_offset=-3 / threads=17 / lookahead_threads=4 / sliced_threads=0 / nr=0 / decimate=0 / interlaced=0 / bluray_compat=0 / constrained_intra=0 / bframes=10 / b_pyramid=2 / b_adapt=2 / b_bias=0 / direct=3 / weightb=1 / open_gop=0 / weightp=2 / keyint=240 / keyint_min=23 / scenecut=40 / intra_refresh=0 / rc_lookahead=120 / rc=2pass / mbtree=0 / bitrate=8412 / ratetol=1.0 / qcomp=0.70 / qpmin=0 / qpmax=69 / qpstep=4 / cplxblur=20.0 / qblur=0.5 / vbv_maxrate=50000 / vbv_bufsize=62500 / nal_hrd=none / filler=0 / ip_ratio=1.40 / pb_ratio=1.30 / aq=3:0.80
Язык : English
Default : Да
Forced : Нет

Аудио #1
Идентификатор : 2
Формат : AC-3
Формат/Информация : Audio Coding 3
Параметр Endianness формата : Big
Идентификатор кодека : A_AC3
Продолжительность : 1 ч. 48 м.
Вид битрейта : Постоянный
Битрейт : 384 Кбит/сек
Каналы : 6 каналов
Расположение каналов : Front: L C R, Side: L R, LFE
Частота : 48,0 КГц
Частота кадров : 31,250 кадров/сек (1536 SPF)
Битовая глубина : 16 бит
Метод сжатия : С потерями
Размер потока : 297 Мбайт (4%)
Заголовок : rus
Язык : Russian
Default : Да
Forced : Нет

Аудио #2
Идентификатор : 3
Формат : AC-3
Формат/Информация : Audio Coding 3
Параметр Endianness формата : Big
Идентификатор кодека : A_AC3
Продолжительность : 1 ч. 48 м.
Вид битрейта : Постоянный
Битрейт : 448 Кбит/сек
Каналы : 6 каналов
Расположение каналов : Front: L C R, Side: L R, LFE
Частота : 48,0 КГц
Частота кадров : 31,250 кадров/сек (1536 SPF)
Битовая глубина : 16 бит
Метод сжатия : С потерями
Размер потока : 347 Мбайт (5%)
Заголовок : eng
Язык : English
Default : Нет
Forced : Нет

Текст #1
Идентификатор : 4
Формат : UTF-8
Идентификатор кодека : S_TEXT/UTF8
Идентификатор кодека/Информация : UTF-8 Plain Text
Продолжительность : 1 ч. 41 м.
Битрейт : 107 бит/сек
ElementCount : 1359
Размер потока : 80,0 Кбайт (0%)
Заголовок : rusFull
Язык : Russian
Default : Нет
Forced : Нет

Текст #2
Идентификатор : 5
Формат : UTF-8
Идентификатор кодека : S_TEXT/UTF8
Идентификатор кодека/Информация : UTF-8 Plain Text
Продолжительность : 1 ч. 39 м.
Битрейт : 62 бит/сек
ElementCount : 1490
Размер потока : 45,2 Кбайт (0%)
Заголовок : engFull
Язык : English
Default : Нет
Forced : Нет

Меню
00:00:00.000 : : Chapter 1
00:05:57.482 : : Chapter 2
00:09:39.871 : : Chapter 3
00:15:10.576 : : Chapter 4
00:21:02.178 : : Chapter 5
00:26:59.076 : : Chapter 6
00:30:14.354 : : Chapter 7
00:34:31.569 : : Chapter 8
00:41:44.585 : : Chapter 9
00:47:26.927 : : Chapter 10
00:53:39.383 : : Chapter 11
01:00:08.563 : : Chapter 12
01:03:41.026 : : Chapter 13
01:08:34.569 : : Chapter 14
01:13:50.176 : : Chapter 15
01:19:29.890 : : Chapter 16
01:26:15.504 : : Chapter 17
01:31:34.364 : : Chapter 18
01:37:34.307 : : Chapter 19
01:43:45.219 : : Chapter 20

pb.wtf



Скачать Последнее слово через торрент https://i111.fastpic.ru/big/2019/1210/34/39bddd0e7d899638d2947112581e9c34.png Скачать фильм Последнее слово через торрент бесплантно в хорошем качестве Описание: Гарриет — успешная бизнесвумен, которая всегда держала жесткий контроль над каждым аспектом своей жизни. Когда она размышляет о ... 10 10 2
Торрент: Зарегистрирован [2019-12-10 18:39] · скачан: 13 раз
Статус: √ проверено
Размер: 6.98 GB
Как cкачать? Как скачать Последнее слово через торрент | qTorrent

% Раздел Тема Автор DL S | L
Фильмы [HD 720p, 1080p] (Хороший звук DUB, MVO) [ 3.62 GB ] Последнее слово / The Last Word [2017 BDRip 720p] MVO bober100 Скачать
1 | 0
Фильмы 2017 [DVDrip, WEB-DLRip, HDrip] (DUB, MVO) [ 1.45 GB ] Последнее слово / The Last Word [2017 BDRip] MVO bober100 Скачать
1 | 0
Фильмы [HD 720p, 1080p] (Хороший звук DUB, MVO) [ 28.8 GB ] Последнее слово / The Last Word [2017 BD Remux 1080p] 2xMVO [СВ Студия FOX] bober100 Скачать
1 | 0
Фильмы 2017 [DVDrip, WEB-DLRip, HDrip] (DUB, MVO) [ 1.46 GB ] Последнее слово / The Last Word [2017 BDRip] MVO [СВ Студия] bober100 Скачать
1 | 0
Фильмы [HD 720p, 1080p] (Хороший звук DUB, MVO) [ 9.98 GB ] Последнее слово / The Last Word [2017 BDRip 1080p] [MVO] killermax2013 Скачать
1 | 0
Фильмы 2017 [DVDrip, WEB-DLRip, HDrip] (DUB, MVO) [ 1.46 GB ] Последнее слово / The Last Word [2017 HDRip] [MVO] killermax2013 Скачать
1 | 0
Фильмы без перевода [ 26.2 GB ] Последнее слово / The Last Word [2017 BD Remux] [Оригинал-ENG] smaster Скачать
1 | 0

28-11-2019 20:33  

Отключить всю рекламу на сайте

    Дорогой пользователь! Огромная просьба, поблагодарите релизера, оцените раздачу и оставьте свои комментарий, если Вы скачали Последнее слово через торрент бесплатно! Внесите свою лепту в развитие PiratBit!
    Комментировать посты могут только пользователи прошедшие не сложную регистрацию
    Показать сообщения:    

    Последнее слово через торрент
    Скачать бесплатно Последнее слово
    Последнее слово скачать торрент
    Последнее слово смотреть онлайн
    Cкачать фильм Последнее слово бесплатно
    Последнее слово скачать торрент в хорошем качестве
    Последнее слово смотреть онлайн бесплатно в хорошем качестве


    Вы не можете начинать темы
    Вы не можете отвечать на сообщения
    Вы не можете редактировать свои сообщения
    Вы не можете удалять свои сообщения
    Вы не можете голосовать в опросах
    Вы не можете прикреплять файлы к сообщениям
    Вы можете скачивать файлы