Ссылка на приватное зеркало всего за 1$. Внимание количество ограничено!!!

OK

1+1

iTunes

мы

OK

1

WEB-DLRip

Джокер

Пифагор

Ведьмак / The Witcher сериал

Лицензия

ПШазам

ОК

Оно 2

iTunes

30
pack

Вам бонус

ВАЖНО

!!Акция!!

Alien_RageХит недели

RePack

Resident Evil 21

ИГРА 18+

pack

RePack

jed

RePack

fifa19

RePack

Assassins Creed: Odyssey

RePack

NEED FOR SPEED™ PAYBACK

4 сезон

9 сезон

Бесстыжие 9 сезон

Все сериалы

все сериалы на PB.wtf

RePack

FAR CRY 5
  

Подсобка дьявола / The Shed (Фрэнк Сабателла) [2019, Ужасы, драма, WEB-DL 1080p] DUB [iTunes] pb.wtf

Подсобка дьявола через торрент pb.wtf

Раздают: 4 [ 20 KB/s ]
Размер: 5.99 GB | Добавлен: 1 мес. 11 д. назад | Торрент скачан:95 раз
Скачать  

10-12-2019 19:32 Подсобка дьявола Скачать торрент  

Подсобка дьявола / The Shed
Год выпуска: 2019
Страна: США
Студия: A Bigger Boat, Sideshow Pictures
Жанр: Ужасы, драма
Продолжительность: 01:37:18
Перевод: Дублированный | iTunes
Субтитры: Английские

Режиссер: Фрэнк Сабателла

rating

В ролях: Джей Джей Уоррен, Коуди Костро, София Хаппонен, Фрэнк Уэйли, Тимоти Боттомс, Шиван Фэллон, Крис Петровски, Франциско Бургос, Ули Шлезингер, Му-Шака Бенсон

Описание: Стэн рано лишился родителей и теперь живёт с грубым дедом, который только и делает, что пьёт и кричит на внука. В школе парню вместе с другом Доммером постоянно приходится отбиваться хулиганов, так что жизнь ребят нельзя назвать увлекательной. Однажды Стэн в собственном сарае для инструментов обнаруживает злобное существо — плотоядное порождение ночи — и с этого момента жизнь парня осложняется ещё сильнее.

Качество: WEB-DL 1080p
Формат: MKV

Видео: MPEG-4 AVC, 1920x816, 7790 Kbit/s, 23.976 fps
Аудио #01: 48 kHz, AC3, 5.1, 384 Kbps | iTunes | RUS |
Аудио #02: 48 kHz, E-AC3, 5.1, 640 Kbps | Оригинал | ENG |
скриншот  скриншот  скриншот  скриншот  скриншот  

General
Unique ID : 90420193781428655151466854108615078279 (0x44064BBEAAB59E6525D6774E254AF187)
Complete name : F:Video111The.Shed.2019.AMZN.WEB-DL.1080p.seleZen.mkv
Format : Matroska
Format version : Version 4
File size : 5.99 GiB
Duration : 1 h 37 min
Overall bit rate : 8 816 kb/s
Movie name : The Shed 2019 from селезень
Encoded date : UTC 2019-12-10 23:11:19
Writing application : mkvmerge v40.0.0 ('Old Town Road + Pony') 64-bit
Writing library : libebml v1.3.9 + libmatroska v1.5.2

Video
ID : 1
Format : AVC
Format/Info : Advanced Video Codec
Format profile : High@L4
Format settings : CABAC / 4 Ref Frames
Format settings, CABAC : Yes
Format settings, Reference : 4 frames
Codec ID : V_MPEG4/ISO/AVC
Duration : 1 h 37 min
Bit rate mode : Constant
Bit rate : 7 790 kb/s
Nominal bit rate : 10 000 kb/s
Width : 1 920 pixels
Height : 816 pixels
Display aspect ratio : 2.35:1
Frame rate mode : Constant
Frame rate : 23.976 (24000/1001) FPS
Color space : YUV
Chroma subsampling : 4:2:0
Bit depth : 8 bits
Scan type : Progressive
Bits/(Pixel*Frame) : 0.207
Stream size : 5.29 GiB (88%)
Language : English
Default : Yes
Forced : No
Color range : Limited
Color primaries : BT.709
Transfer characteristics : BT.709
Matrix coefficients : BT.709

Audio #1
ID : 2
Format : AC-3
Format/Info : Audio Coding 3
Commercial name : Dolby Digital
Codec ID : A_AC3
Duration : 1 h 37 min
Bit rate mode : Constant
Bit rate : 384 kb/s
Channel(s) : 6 channels
Channel layout : L R C LFE Ls Rs
Sampling rate : 48.0 kHz
Frame rate : 31.250 FPS (1536 SPF)
Bit depth : 16 bits
Compression mode : Lossy
Stream size : 267 MiB (4%)
Title : iTunes
Language : Russian
Service kind : Complete Main
Default : Yes
Forced : Yes

Audio #2
ID : 3
Format : E-AC-3
Format/Info : Enhanced AC-3
Commercial name : Dolby Digital Plus
Codec ID : A_EAC3
Duration : 1 h 37 min
Bit rate mode : Constant
Bit rate : 640 kb/s
Channel(s) : 6 channels
Channel layout : L R C LFE Ls Rs
Sampling rate : 48.0 kHz
Frame rate : 31.250 FPS (1536 SPF)
Compression mode : Lossy
Stream size : 445 MiB (7%)
Title : Original
Language : English
Service kind : Complete Main
Default : No
Forced : No

Text #1
ID : 4
Format : UTF-8
Codec ID : S_TEXT/UTF8
Codec ID/Info : UTF-8 Plain Text
Duration : 1 h 31 min
Bit rate : 44 b/s
Count of elements : 1103
Stream size : 30.2 KiB (0%)
Title : Full
Language : English
Default : No
Forced : No

Text #2
ID : 5
Format : UTF-8
Codec ID : S_TEXT/UTF8
Codec ID/Info : UTF-8 Plain Text
Duration : 1 h 36 min
Bit rate : 47 b/s
Count of elements : 1280
Stream size : 33.5 KiB (0%)
Title : SDH
Language : English
Default : No
Forced : No

pb.wtf



Скачать Подсобка дьявола через торрент https://c.radikal.ru/c10/1912/22/8e8baac38d9e.jpg Скачать фильм Подсобка дьявола через торрент бесплантно в хорошем качестве Описание: Стэн рано лишился родителей и теперь живёт с грубым дедом, который только и делает, что пьёт и кричит на внука. В школе парню ... 7.8 10 8
Торрент: Зарегистрирован [2019-12-11 05:24] · скачан: 95 раз
Статус: √ проверено
Размер: 5.99 GB
Как cкачать? Как скачать Подсобка дьявола через торрент | qTorrent

% Раздел Тема Автор DL S | L
Фильмы 2019-2020 [DVDrip, WEB-DLRip, HDrip] (DUB, MVO) [ 1.42 GB ] Подсобка дьявола / The Shed [2019 BDRip] - Twi7ter Скачать
16 | 4
Фильмы 2019-2020 [DVDrip, WEB-DLRip, HDrip] (DUB, MVO) [ 745 MB ] Подсобка дьявола / The Shed [2019 HDRip] bober100 Скачать
1 | 0
T Фильмы [HD 720p, 1080p] (Хороший звук DUB, MVO) [ 7.91 GB ] Подсобка дьявола / The Shed [2019 BDRip 1080p] bober100 Скачать
2 | 0
Фильмы 2019-2020 [DVDrip, WEB-DLRip, HDrip] (DUB, MVO) [ 1.46 GB ] Подсобка дьявола / The Shed [2019 WEB-DLRip] bober100 Скачать
5 | 0
Фильмы (WEB-DL 720p, 1080p) [ 2.99 GB ] Подсобка дьявола / The Shed [2019 WEB-DL 720p] bober100 Скачать
3 | 0

28-11-2019 20:33  

Отключить всю рекламу на сайте

11-12-2019 09:44 Подсобка дьявола Скачать торрент  

Хороший фильм.pb.wtf



11-12-2019 15:34 Подсобка дьявола Скачать торрент  

че за дерьмище? зачем я это смотрел?...pb.wtf



18-01-2020 13:56 Подсобка дьявола Скачать торрент  

шлак,зря потратил время pb.wtf



    Дорогой пользователь! Огромная просьба, поблагодарите релизера, оцените раздачу и оставьте свои комментарий, если Вы скачали Подсобка дьявола через торрент бесплатно! Внесите свою лепту в развитие PiratBit!
    Комментировать посты могут только пользователи прошедшие не сложную регистрацию
    Показать сообщения:    

    Подсобка дьявола через торрент
    Скачать бесплатно Подсобка дьявола
    Подсобка дьявола скачать торрент
    Подсобка дьявола смотреть онлайн
    Cкачать фильм Подсобка дьявола бесплатно
    Подсобка дьявола скачать торрент в хорошем качестве
    Подсобка дьявола смотреть онлайн бесплатно в хорошем качестве


    Вы не можете начинать темы
    Вы не можете отвечать на сообщения
    Вы не можете редактировать свои сообщения
    Вы не можете удалять свои сообщения
    Вы не можете голосовать в опросах
    Вы не можете прикреплять файлы к сообщениям
    Вы можете скачивать файлы