Ссылка на приватное зеркало всего за 1$. Внимание количество ограничено!!!

OK

1+1

iTunes

мы

OK

1

WEB-DLRip

Джокер

Пифагор

Ведьмак / The Witcher сериал

iTunes

ПШазам

ОК

Оно 2

iTunes

30
pack

Вам бонус

ВАЖНО

!!Акция!!

Alien_RageХит недели

RePack

Resident Evil 21

ИГРА 18+

pack

RePack

jed

RePack

fifa19

RePack

Assassins Creed: Odyssey

RePack

NEED FOR SPEED™ PAYBACK

4 сезон

9 сезон

Бесстыжие 9 сезон

Все сериалы

все сериалы на PB.wtf

RePack

FAR CRY 5
  

Собачья жизнь 2 / A Dog's Journey (Гейл Манкусо) [2019, фэнтези, драма, комедия, приключения, семейный, BDRip 720p] DUB [Лицензия] pb.wtf

Собачья жизнь 2 через торрент pb.wtf

Раздают: 4 [ 158 KB/s ]
Размер: 5.47 GB | Добавлен: 1 мес. 14 д. назад | Торрент скачан:57 раз
Скачать  

10-12-2019 20:08 Собачья жизнь 2 Скачать торрент  

Собачья жизнь 2 / A Dog's Journey
Год выпуска: 2019
Страна: Индия, Гонконг, США, Китай
Студия: DreamWorks, Walden Media, Amblin Entertainment
Жанр: фэнтези, драма, комедия, приключения, семейный
Продолжительность: 01:48:39
Перевод: Дублированный | Лицензия
Субтитры: Русские (Forced, full), английские

Режиссер: Гейл Манкусо

rating

В ролях: Дэннис Куэйд, Эбби Райдер Фортсон, Бетти Гилпин, Кэтрин Прескотт, Марг Хельгенбергер, Джош Гэд, Джейк Мэнли, Даниэла Барбоза, Йен Чен, Генри Лау, Эмма Фольк, Джонни Галэки

Описание: Главного героя зовут Бэйли, он любит бекон и своего человека Итана. Они прожили вместе много счастливых лет, и вот настала пора прощаться. Но разве он может уйти, когда другу так нужна помощь?

Качество: BDRip 720p
Формат: MKV

Видео: MPEG-4 AVC, 1280x536, 6113 Kbit/s, 23.976 fps
Аудио #01: 48 kHz, AC3, 5.1, 640 Kbps | Дублированный | RUS |
Аудио #02: 48 kHz, AC3, 5.1, 448 Kbps | Оригинал | ENG |
скриншот  скриншот  скриншот  скриншот  скриншот  

General
Unique ID : 76601224516406132985929380617663097137 (0x39A0DBF50240D382877001D839352931)
Complete name : F:Video111A.Dog's.Journey.2019.BDRip.720p.seleZen.mkv
Format : Matroska
Format version : Version 4
File size : 5.47 GiB
Duration : 1 h 48 min
Overall bit rate : 7 204 kb/s
Movie name : A Dogs Journey 2019 from селезень
Encoded date : UTC 2019-12-10 20:00:56
Writing application : mkvmerge v40.0.0 ('Old Town Road + Pony') 64-bit
Writing library : libebml v1.3.9 + libmatroska v1.5.2

Video
ID : 1
Format : AVC
Format/Info : Advanced Video Codec
Format profile : High@L4.1
Format settings : CABAC / 12 Ref Frames
Format settings, CABAC : Yes
Format settings, Reference : 12 frames
Codec ID : V_MPEG4/ISO/AVC
Duration : 1 h 48 min
Bit rate : 6 113 kb/s
Width : 1 280 pixels
Height : 536 pixels
Display aspect ratio : 2.40:1
Frame rate mode : Constant
Frame rate : 23.976 (24000/1001) FPS
Color space : YUV
Chroma subsampling : 4:2:0
Bit depth : 8 bits
Scan type : Progressive
Bits/(Pixel*Frame) : 0.372
Stream size : 4.64 GiB (85%)
Title : playHD
Writing library : x264 core 157 r2867+103 0d6443f t_mod_Custom_2 [8-bit@all X86_64]
Encoding settings : cabac=1 / ref=12 / deblock=1:-3:-3 / analyse=0x3:0x133 / me=umh / subme=10 / psy=1 / fade_compensate=0.00 / psy_rd=1.00:0.00 / mixed_ref=1 / me_range=32 / chroma_me=1 / trellis=2 / 8x8dct=1 / cqm=0 / deadzone=21,11 / fast_pskip=0 / chroma_qp_offset=-2 / threads=12 / lookahead_threads=2 / sliced_threads=0 / nr=0 / decimate=0 / interlaced=0 / bluray_compat=0 / constrained_intra=0 / fgo=0 / bframes=8 / b_pyramid=2 / b_adapt=2 / b_bias=0 / direct=3 / weightb=1 / open_gop=0 / weightp=2 / keyint=250 / keyint_min=23 / scenecut=40 / intra_refresh=0 / rc=crf / mbtree=0 / crf=14.6000 / qcomp=0.60 / qpmin=0:0:0 / qpmax=69:69:69 / qpstep=4 / ip_ratio=1.35 / pb_ratio=1.25 / aq=3:0.85 / aq-sensitivity=10.00 / aq-factor=1.00:1.00:1.00 / aq2=0 / aq3=0
Language : English
Default : Yes
Forced : No

Audio #1
ID : 2
Format : AC-3
Format/Info : Audio Coding 3
Commercial name : Dolby Digital
Codec ID : A_AC3
Duration : 1 h 48 min
Bit rate mode : Constant
Bit rate : 640 kb/s
Channel(s) : 6 channels
Channel layout : L R C LFE Ls Rs
Sampling rate : 48.0 kHz
Frame rate : 31.250 FPS (1536 SPF)
Bit depth : 16 bits
Compression mode : Lossy
Stream size : 497 MiB (9%)
Title : Dub [License]
Language : Russian
Service kind : Complete Main
Default : Yes
Forced : Yes

Audio #2
ID : 3
Format : AC-3
Format/Info : Audio Coding 3
Commercial name : Dolby Digital
Codec ID : A_AC3
Duration : 1 h 48 min
Bit rate mode : Constant
Bit rate : 448 kb/s
Channel(s) : 6 channels
Channel layout : L R C LFE Ls Rs
Sampling rate : 48.0 kHz
Frame rate : 31.250 FPS (1536 SPF)
Bit depth : 16 bits
Compression mode : Lossy
Stream size : 348 MiB (6%)
Title : Original
Language : English
Service kind : Complete Main
Default : No
Forced : No

Text #1
ID : 4
Format : UTF-8
Codec ID : S_TEXT/UTF8
Codec ID/Info : UTF-8 Plain Text
Duration : 1 h 4 min
Bit rate : 1 b/s
Count of elements : 11
Stream size : 608 Bytes (0%)
Title : Forced
Language : Russian
Default : Yes
Forced : Yes

Text #2
ID : 5
Format : UTF-8
Codec ID : S_TEXT/UTF8
Codec ID/Info : UTF-8 Plain Text
Duration : 1 h 47 min
Bit rate : 89 b/s
Count of elements : 1726
Stream size : 70.3 KiB (0%)
Title : Full
Language : Russian
Default : No
Forced : No

Text #3
ID : 6
Format : UTF-8
Codec ID : S_TEXT/UTF8
Codec ID/Info : UTF-8 Plain Text
Duration : 1 h 40 min
Bit rate : 80 b/s
Count of elements : 1960
Stream size : 59.8 KiB (0%)
Language : English
Default : No
Forced : No

Menu
00:00:00.000 : :Chapter 01
00:04:54.794 : :Chapter 02
00:10:32.549 : :Chapter 03
00:15:05.029 : :Chapter 04
00:20:52.585 : :Chapter 05
00:26:00.142 : :Chapter 06
00:30:10.851 : :Chapter 07
00:35:14.279 : :Chapter 08
00:39:44.507 : :Chapter 09
00:43:07.752 : :Chapter 10
00:49:12.366 : :Chapter 11
00:56:54.620 : :Chapter 12
01:01:46.620 : :Chapter 13
01:07:36.094 : :Chapter 14
01:13:57.975 : :Chapter 15
01:20:45.758 : :Chapter 16
01:26:22.886 : :Chapter 17
01:28:28.803 : :Chapter 18
01:37:27.008 : :Chapter 19
01:42:06.537 : :Chapter 20

pb.wtf



Скачать Собачья жизнь 2 через торрент https://d.radikal.ru/d21/1912/b7/64cbb274f53f.jpg Скачать фильм Собачья жизнь 2 через торрент бесплантно в хорошем качестве Описание: Главного героя зовут Бэйли, он любит бекон и своего человека Итана. Они прожили вместе много счастливых лет, и вот настала пора ... 10 10 2
Торрент: Зарегистрирован [2019-12-10 20:08] · скачан: 57 раз
Статус: √ проверено
Размер: 5.47 GB
Как cкачать? Как скачать Собачья жизнь 2 через торрент | qTorrent

28-11-2019 20:33  

Отключить всю рекламу на сайте

    Дорогой пользователь! Огромная просьба, поблагодарите релизера, оцените раздачу и оставьте свои комментарий, если Вы скачали Собачья жизнь 2 через торрент бесплатно! Внесите свою лепту в развитие PiratBit!
    Комментировать посты могут только пользователи прошедшие не сложную регистрацию
    Показать сообщения:    

    Собачья жизнь 2 через торрент
    Скачать бесплатно Собачья жизнь 2
    Собачья жизнь 2 скачать торрент
    Собачья жизнь 2 смотреть онлайн
    Cкачать фильм Собачья жизнь 2 бесплатно
    Собачья жизнь 2 скачать торрент в хорошем качестве
    Собачья жизнь 2 смотреть онлайн бесплатно в хорошем качестве


    Вы не можете начинать темы
    Вы не можете отвечать на сообщения
    Вы не можете редактировать свои сообщения
    Вы не можете удалять свои сообщения
    Вы не можете голосовать в опросах
    Вы не можете прикреплять файлы к сообщениям
    Вы можете скачивать файлы