Ссылка на приватное зеркало всего за 1$. Внимание количество ограничено!!!

OK

1+1

iTunes

мы

OK

1

WEB-DLRip

Джокер

Пифагор

Ведьмак / The Witcher сериал

iTunes

ПШазам

ОК

Оно 2

iTunes

30
pack

Вам бонус

ВАЖНО

!!Акция!!

Alien_RageХит недели

RePack

Resident Evil 21

ИГРА 18+

pack

RePack

jed

RePack

fifa19

RePack

Assassins Creed: Odyssey

RePack

NEED FOR SPEED™ PAYBACK

4 сезон

9 сезон

Бесстыжие 9 сезон

Все сериалы

все сериалы на PB.wtf

RePack

FAR CRY 5
  

Тайны следствия / Сезон: 19 / Серии: 1-24 из 24 (Ольга Кандидатова) [2019, Детектив, драма, криминал, HDTV 1080i] pb.wtf

Тайны следствия через торрент pb.wtf

Размер: 65.48 GB | Добавлен: 1 мес. 1 д. назад | Торрент скачан:3 раза
Скачать  

11-12-2019 05:07 Тайны следствия Скачать торрент  

Тайны следствия Год выпуска: 2019
Страна: Россия
Жанр: Детектив, драма, криминал
Продолжительность: ~ 00:50:00 серия
Перевод: Не требуется
Субтитры: отсутствуют

Режиссер: Ольга Кандидатова

rating

В ролях: Анна Ковальчук, Вячеслав Захаров, Игорь Николаев, Александр Новиков (III), Антон Ксенев, Давид Бродский, Андрей Шарков, Степан Пивкин, Татьяна Левина, Анастасия Ступина, Светлана Щедрина, Злата Ильченко, Варвара Александрова, Владимир Постников, Владимир Колганов, Андрей Булатов, Александр Андреев, Александр Конев

Описание: Строгая и обаятельная Мария Сергеевна Швецова продолжает работать в Следственном комитете. После расставания с хирургом Солнцевым она снова свободна и теперь полностью погружена в работу. А вот в жизни Курочкина и Кораблева большие перемены - их повышают в должности. Кораблев теперь становится начальником убойного отдела, переезжает в отдельный кабинет. Для усиления отдела в помощь Курочкину решено взять нового сотрудника - Олега Платонова, профессионала своего дела со сложным характером и неоднозначной репутацией.

Качество: HDTV 1080i
Формат: TS

Видео: MPEG-4 AVC, ~ 7100 Кбит/с, 1920x1080, 25 кадр/с
Аудио: Русский (MP2, 2 ch, 192 Кбит/с)
скриншот  скриншот  скриншот  скриншот  скриншот  

скриншот  скриншот  скриншот  скриншот  скриншот  

Общее
Идентификатор : 1 (0x1)
Полное имя : D:\Tajny.sledstviya-19.2019.HDTV.1080\Tajny.sledstviya-19.01.2019.HDTV.1080.ts
Формат : MPEG-TS
Размер файла : 2,72 Гбайт
Продолжительность : 50 м. 58 с.
Режим общего битрейта : Переменный
Общий поток : 7649 Кбит/сек

Видео
Идентификатор : 2911 (0xB5F)
Идентификатор меню : 1401 (0x579)
Формат : AVC
Формат/Информация : Advanced Video Codec
Профиль формата : High@L4
Параметр CABAC формата : Да
Параметр RefFrames формата : 4 кадра
Идентификатор кодека : 27
Продолжительность : 50 м. 57 с.
Битрейт : 7077 Кбит/сек
Ширина : 1920 пикселей
Высота : 1080 пикселей
Соотношение сторон : 16:9
Частота кадров : 25,000 кадров/сек
Цветовое пространство : YUV
Субдискретизация насыщенности : 4:2:0
Битовая глубина : 8 бит
Тип развёртки : MBAFF
Метод сохранения типа развёртки : Чередующиеся поля
Порядок развёртки : Верхнее поле первое
Бит/(Пиксели*Кадры) : 0.137
Размер потока : 2,52 Гбайт (93%)

Аудио
Идентификатор : 2912 (0xB60)
Идентификатор меню : 1401 (0x579)
Формат : MPEG Audio
Версия формата : Version 1
Профиль формата : Layer 2
Режим : Joint stereo
Расширение режима : Intensity Stereo + MS Stereo
Идентификатор кодека : 3
Продолжительность : 50 м. 57 с.
Вид битрейта : Постоянный
Битрейт : 192 Кбит/сек
Каналы : 2 канала
Частота : 48,0 КГц
Метод сжатия : С потерями
Задержка видео : -160 мс.
Размер потока : 70,0 Мбайт (3%)
Язык : Russian

Внимание! Раздача ведётся путём добавления новых серий; при каждом добавлении создаётся новый торрент. Чтобы начать докачку новой серии, пользователям необходимо сделать следующее:
(1) остановить скачивание,
(2) удалить старый торрент у себя из клиента (старые серии удалять не надо),
(3) скачать новый торрент и запустить его у себя в клиенте вместо старого, при этом указать клиенту путь в старую папку куда и должно происходить скачивание новых серий.

Ваш клиент при этом должен произвести хеширование (проверку) старой папки (если не производит сам - помогите ему сделать это), и будет докачивать только те серии которых у вас ещё нет. Старые серии при этом не удаляются, а продолжают раздаваться!

Eсли вы уже удалили старые серии, то предотвратить повторную закачку старых серий можно, отжав галочку в соответсвующих местах при запуске нового торрента. По возможности, желательно не удалять старые серии как можно дольше чтобы релизёр не столько продолжал раздавать старые серии, а смог сконцентрироваться на новых.
pb.wtf



Скачать Тайны следствия через торрент https://i111.fastpic.ru/big/2019/1209/8a/f38909910345960ef84da47cb5eb208a.jpg Скачать фильм Тайны следствия через торрент бесплантно в хорошем качестве Описание: Строгая и обаятельная Мария Сергеевна Швецова продолжает работать в Следственном комитете. После расставания с хирургом Солнцевым ... 9.5 10 4
Торрент: Зарегистрирован [2019-12-26 20:46] · скачан: 3 раз
Статус: √ проверено
Размер: 65.48 GB
Как cкачать? Как скачать Тайны следствия через торрент | qTorrent

% Раздел Тема Автор DL S | L
Наши сериалы [ 16.27 GB ] Тайны следствия / Сезон: 19 / Серии: 1-24 из 24 [2019 HDTVRip] bober100 Скачать
3 | 0
Наши сериалы [ 14.56 GB ] Тайны следствия / Сезон: 19 / Серии: 1-24 из 24 [2019 SATRip-AVC] aleksan55 Скачать
1 | 1
Наши сериалы [ 31.61 GB ] Тайны следствия / Сезон: 19 / Серии: 1-24 из 24 [2019 HDTVRip 720p] bober100 Скачать
1 | 0
Наши сериалы [ 15.52 GB ] Тайны следствия / Сезон: 19 / Серии: 1-24 из 24 [2019 WEBRip-AVC] bober100 Скачать
1 | 1
Наши сериалы [ 15.58 GB ] Тайны следствия / Сезон: 19 / Серии: 1-24 из 24 [2019 WEB-DLRip] bober100 Скачать
1 | 0

28-11-2019 20:33  

Отключить всю рекламу на сайте

    Дорогой пользователь! Огромная просьба, поблагодарите релизера, оцените раздачу и оставьте свои комментарий, если Вы скачали Тайны следствия через торрент бесплатно! Внесите свою лепту в развитие PiratBit!
    Комментировать посты могут только пользователи прошедшие не сложную регистрацию
    Показать сообщения:    

    Тайны следствия через торрент
    Скачать бесплатно Тайны следствия
    Тайны следствия скачать торрент
    Тайны следствия смотреть онлайн
    Cкачать фильм Тайны следствия бесплатно
    Тайны следствия скачать торрент в хорошем качестве
    Тайны следствия смотреть онлайн бесплатно в хорошем качестве


    Вы не можете начинать темы
    Вы не можете отвечать на сообщения
    Вы не можете редактировать свои сообщения
    Вы не можете удалять свои сообщения
    Вы не можете голосовать в опросах
    Вы не можете прикреплять файлы к сообщениям
    Вы можете скачивать файлы