Ссылка на приватное зеркало всего за 1$. Внимание количество ограничено!!!

OK

1+1

iTunes

мы

OK

1

WEB-DLRip

Джокер

Пифагор

Ведьмак / The Witcher сериал

iTunes

ПШазам

ОК

Оно 2

iTunes

30
pack

Вам бонус

ВАЖНО

!!Акция!!

Alien_RageХит недели

RePack

Resident Evil 21

ИГРА 18+

pack

RePack

jed

RePack

fifa19

RePack

Assassins Creed: Odyssey

RePack

NEED FOR SPEED™ PAYBACK

4 сезон

9 сезон

Бесстыжие 9 сезон

Все сериалы

все сериалы на PB.wtf

RePack

FAR CRY 5
  

Жозе, тигр и рыба / Joze to tora to sakana tachi (Инудо Иссин) [2003, драма, мелодрама, BDRip 1080p by msltel] VO pb.wtf

Жозе, тигр и рыба через торрент pb.wtf

Размер: 12.4 GB | Добавлен: 1 мес. 14 д. назад | Торрент скачан:1 раз
Скачать  

11-12-2019 05:36 Жозе, тигр и рыба Скачать торрент  

Название: Жозе, тигр и рыба
Оригинальное название: Joze to tora to sakana tachi
Год выпуска: 2003
Страна: Япония
Жанр: драма, мелодрама
Продолжительность: 01:56:18
Перевод: закадровый одноголосый

Режиссер: Инудо Иссин
В ролях: Сатоси Цумабуки, Тидзуру Икэваки, Дзюри Уэно, Хирофуми Араи, Ёсиёси Аракава, Норико Эгути, Дайго Фудзисава, Кадзухиро Фудзивара, Ицудзи Итао, Таи Кагэяма

О фильме: Студент Цунэо подрабатывает в игорном заведении. Посетители заводят при нём разговор о старухе, которая бродит по улицам с детской коляской. Что в ней? Однажды Цунэо видит, как эта коляска, скатившись в горки, врезается в ограждение. Старуха просит о помощи. В коляске - девушка, лишённая возможности ходить. Её имя Кумико, но себя она называет Жозе. Странная девушка очаровывает Цунэо. Но посторонним трудно поверить в бескорыстность этой любви...



Качество: BDRip 1080p
Формат: MKV
Видео: MPEG-4 AVC, 14.7 Mбит/с, 1920x1850
Аудио 1: русский, AC3, 384 kbps, 2 ch, 48 kHz [закадровый одноголосый, D.I.M]
Аудио 2: японский, AC3, 192 kbps, 2 ch, 48 kHz [оригинал]
Субтитры 1: русские
Субтитры 2: английские
Главы/чаптеры
Общее
Уникальный идентификатор : 202797918490504645362100852203441879300 (0x98917558EAEE9C2D9D75794C957FF904)
Полное имя : D:\Video\Жозе, тигр и рыба.2003.BDRip 1080p by msltel.mkv
Формат : Matroska
Версия формата : Version 4
Размер файла : 12,4 Гбайт
Продолжительность : 1 ч. 56 м.
Общий поток : 15,3 Мбит/сек
Название фильма : Rip by msltel
Дата кодирования : UTC 2019-12-11 02:38:44
Программа кодирования : mkvmerge v8.2.0 ('World of Adventure') 64bit
Библиотека кодирования : libebml v1.3.1 + libmatroska v1.4.2

Видео
Идентификатор : 1
Формат : AVC
Формат/Информация : Advanced Video Codec
Профиль формата : High@L4.1
Настройки формата : CABAC / 4 Ref Frames
Параметр CABAC формата : Да
Параметр RefFrames формата : 4 кадра
Идентификатор кодека : V_MPEG4/ISO/AVC
Продолжительность : 1 ч. 56 м.
Битрейт : 14,7 Мбит/сек
Ширина : 1850 пикселей
Высота : 1020 пикселей
Соотношение сторон : 16:9
Режим частоты кадров : Постоянный
Частота кадров : 23,976 (24000/1001) кадра/сек
Цветовое пространство : YUV
Субдискретизация насыщенности : 4:2:0
Битовая глубина : 8 бит
Тип развёртки : Прогрессивная
Бит/(Пиксели*Кадры) : 0.325
Размер потока : 11,9 Гбайт (96%)
Библиотека кодирования : x264 core 157 r2935 545de2f
Настройки программы : cabac=1 / ref=4 / deblock=1:-2:-2 / analyse=0x3:0x113 / me=umh / subme=11 / psy=1 / psy_rd=1.00:0.15 / mixed_ref=1 / me_range=32 / chroma_me=1 / trellis=2 / 8x8dct=1 / cqm=0 / deadzone=21,11 / fast_pskip=0 / chroma_qp_offset=-3 / threads=6 / lookahead_threads=1 / sliced_threads=0 / nr=0 / decimate=1 / interlaced=0 / bluray_compat=0 / constrained_intra=0 / bframes=6 / b_pyramid=2 / b_adapt=2 / b_bias=0 / direct=1 / weightb=1 / open_gop=0 / weightp=2 / keyint=230 / keyint_min=23 / scenecut=40 / intra_refresh=0 / rc_lookahead=40 / rc=crf / mbtree=0 / crf=19.2 / qcomp=0.60 / qpmin=0 / qpmax=69 / qpstep=4 / vbv_maxrate=50000 / vbv_bufsize=62500 / crf_max=0.0 / nal_hrd=none / filler=0 / ip_ratio=1.40 / pb_ratio=1.30 / aq=1:1.00
Язык : Japanese
Default : Да
Forced : Нет

Аудио #1
Идентификатор : 2
Формат : AC-3
Формат/Информация : Audio Coding 3
Коммерческое название : Dolby Digital
Идентификатор кодека : A_AC3
Продолжительность : 1 ч. 56 м.
Вид битрейта : Постоянный
Битрейт : 384 Кбит/сек
Каналы : 2 канала
ChannelLayout : L R
Частота : 48,0 КГц
Частота кадров : 31,250 кадров/сек (1536 SPF)
Метод сжатия : С потерями
Размер потока : 319 Мбайт (3%)
Заголовок : D.I.M
Язык : Russian
ServiceKind/String : Complete Main
Default : Да
Forced : Нет

Аудио #2
Идентификатор : 3
Формат : AC-3
Формат/Информация : Audio Coding 3
Коммерческое название : Dolby Digital
Идентификатор кодека : A_AC3
Продолжительность : 1 ч. 56 м.
Вид битрейта : Постоянный
Битрейт : 192 Кбит/сек
Каналы : 2 канала
ChannelLayout : L R
Частота : 48,0 КГц
Частота кадров : 31,250 кадров/сек (1536 SPF)
Метод сжатия : С потерями
Размер потока : 160 Мбайт (1%)
Заголовок : original
Язык : Japanese
ServiceKind/String : Complete Main
Default : Нет
Forced : Нет

Текст #1
Идентификатор : 4
Формат : UTF-8
Идентификатор кодека : S_TEXT/UTF8
Идентификатор кодека/Информация : UTF-8 Plain Text
Продолжительность : 1 ч. 52 м.
Битрейт : 42 бит/сек
ElementCount : 945
Размер потока : 34,6 Кбайт (0%)
Заголовок : русские
Язык : Russian
Default : Нет
Forced : Нет

Текст #2
Идентификатор : 5
Формат : UTF-8
Идентификатор кодека : S_TEXT/UTF8
Идентификатор кодека/Информация : UTF-8 Plain Text
Продолжительность : 1 ч. 49 м.
Битрейт : 27 бит/сек
ElementCount : 941
Размер потока : 22,2 Кбайт (0%)
Заголовок : английские
Язык : English
Default : Нет
Forced : Нет

Меню
00:00:00.000 : en:01
00:02:17.220 : en:02
00:04:03.660 : en:03
00:10:58.283 : en:04
00:15:03.820 : en:05
00:17:51.237 : en:06
00:23:30.826 : en:07
00:27:10.462 : en:08
00:32:06.049 : en:09
00:37:18.236 : en:10
00:44:51.230 : en:11
00:47:32.099 : en:12
00:53:46.098 : en:13
00:57:11.720 : en:14
01:04:34.579 : en:15
01:16:47.353 : en:16
01:19:35.270 : en:17
01:22:08.257 : en:18
01:25:43.597 : en:19
01:30:07.569 : en:20
01:37:49.238 : en:21
01:42:11.709 : en:22
01:47:33.280 : en:23
01:52:34.414 : en:24
pb.wtf



Скачать Жозе, тигр и рыба через торрент https://a.radikal.ru/a41/1912/ad/b5489c1d8eb4.jpg Скачать фильм Жозе, тигр и рыба через торрент бесплантно в хорошем качестве О фильме: Студент Цунэо подрабатывает в игорном заведении. Посетители заводят при нём разговор о старухе, которая бродит по улицам с ... 10 10 1
Торрент: Зарегистрирован [2019-12-11 05:36] · скачан: 1 раз
Статус: √ проверено
Размер: 12.4 GB
Как cкачать? Как скачать Жозе, тигр и рыба через торрент | qTorrent

% Раздел Тема Автор DL S | L
Азиатские фильмы [ 2.79 GB ] Жозе тигр и рыба / Joze to tora to sakana tachi [2003 BDRip by msltel] VO msltel Скачать
1 | 0
Азиатские фильмы [ 4.96 GB ] Жозе тигр и рыба / Joze to tora to sakana tachi [2003 BDRip 720p by msltel] VO msltel Скачать
1 | 0

28-11-2019 20:33  

Отключить всю рекламу на сайте

    Дорогой пользователь! Огромная просьба, поблагодарите релизера, оцените раздачу и оставьте свои комментарий, если Вы скачали Жозе, тигр и рыба через торрент бесплатно! Внесите свою лепту в развитие PiratBit!
    Комментировать посты могут только пользователи прошедшие не сложную регистрацию
    Показать сообщения:    

    Жозе, тигр и рыба через торрент
    Скачать бесплатно Жозе, тигр и рыба
    Жозе, тигр и рыба скачать торрент
    Жозе, тигр и рыба смотреть онлайн
    Cкачать фильм Жозе, тигр и рыба бесплатно
    Жозе, тигр и рыба скачать торрент в хорошем качестве
    Жозе, тигр и рыба смотреть онлайн бесплатно в хорошем качестве


    Вы не можете начинать темы
    Вы не можете отвечать на сообщения
    Вы не можете редактировать свои сообщения
    Вы не можете удалять свои сообщения
    Вы не можете голосовать в опросах
    Вы не можете прикреплять файлы к сообщениям
    Вы можете скачивать файлы