Ссылка на приватное зеркало нашего сайта всего за 1$. Внимание количество ограничено!!!

2 сезон

iTunes

1 сезон

1

2 сезон

2 сезон

iTunes

1 сезон

RePack

30

Новинка

ВАЖНО

ИГРА 18+

pack

RePack

MK11
pack

Забери бонус

RePack

jed

!!Акция!!

Alien_Rage

RePack

fifa19

RePack

Assassins Creed: Odyssey

RePack

NEED FOR SPEED™ PAYBACK

4 сезон

9 сезон

Бесстыжие 9 сезон

Все сериалы

все сериалы на PB.wtf

RePack

FAR CRY 5
  

Во всё тяжкое / Ричард прощается / The Professor (Уэйн Робертс) [2018, драма, комедия, BD Remux 1080p] DUB [iTunes] +MVO [HDRezka Studio] pb.wtf

Во всё тяжкое через торрент pb.wtf

Размер: 18.64 GB | Добавлен: 11 мес. назад | Торрент скачан:190 раз
Скачать  

11-12-2019 20:33 Во всё тяжкое Скачать торрент  

Во всё тяжкое / Ричард прощается / The Professor
Год выпуска: 2018
Страна: США
Студия: Global Road Entertainment, Automatik, Leeding Media
Жанр: драма, комедия
Продолжительность: 01:31:37
Перевод:
#1: Дублированный | iTunes
#2: Профессиональный многоголосый | HDRezka Studio
Субтитры: Русские (Full), английские

Режиссер: Уэйн Робертс

rating

В ролях: Джонни Депп, Зои Дойч, Розмари ДеУитт, Дэнни Хьюстон, Палома Квиатковски, Шиван Фэллон, Кейтлин Бернард, Фэрра Авива, Робин Брэдли, Кит МакКекни, Рон Ливингстон, Джастин Уоррингтон, Одесса Янг.

Описание: Ричард — профессор университета, который неожиданно узнает о том, что умирает от неизлечимой болезни. Он всегда жил по совести, ходил на работу, платил налоги, однако это никогда не приносило ему морального удовлетворения. И теперь Ричард решает провести последние дни в свое удовольствие. Понимая, что ему больше нечего терять, он начинает делать все то, что никогда бы не сделал раньше: посещает шумные вечеринки, заводит случайные связи, употребляет наркотики, появляется на работе пьяным и пытается наверстать упущенное...

Качество: BD Remux 1080p
Формат: MKV

Видео: MPEG-4 AVC, 1920x1080, 25.2 Mbit/s, 23.976 fps
Аудио #01: 48 kHz, AC3, 5.1, 384 Kbps | iTunes | RUS |
Аудио #02: 48 kHz, AC3, 2.0, 192 Kbps | HDRezka Studio | RUS |
Аудио #03: 48 kHz, DTS-HD MA, 5.1, 3344 Kbps | Оригинал | ENG |
скриншот  скриншот  скриншот  скриншот  скриншот  

General
Unique ID : 33408959512569305748119059710918062903 (0x192254E0B27E6114941AA9590E24F337)
Complete name : F:Video111The.Professor.2018.BDREMUX.1080p.seleZen.mkv
Format : Matroska
Format version : Version 4
File size : 18.6 GiB
Duration : 1 h 31 min
Overall bit rate mode : Variable
Overall bit rate : 29.1 Mb/s
Movie name : The Professor 2018 from селезень
Encoded date : UTC 2019-12-11 20:15:16
Writing application : mkvmerge v40.0.0 ('Old Town Road + Pony') 64-bit
Writing library : libebml v1.3.9 + libmatroska v1.5.2

Video
ID : 1
Format : AVC
Format/Info : Advanced Video Codec
Format profile : High@L4.1
Format settings : CABAC / 4 Ref Frames
Format settings, CABAC : Yes
Format settings, Reference : 4 frames
Codec ID : V_MPEG4/ISO/AVC
Duration : 1 h 31 min
Bit rate mode : Variable
Bit rate : 25.2 Mb/s
Maximum bit rate : 37.0 Mb/s
Width : 1 920 pixels
Height : 1 080 pixels
Display aspect ratio : 16:9
Frame rate mode : Constant
Frame rate : 23.976 (24000/1001) FPS
Color space : YUV
Chroma subsampling : 4:2:0
Bit depth : 8 bits
Scan type : Progressive
Bits/(Pixel*Frame) : 0.507
Stream size : 16.1 GiB (87%)
Language : English
Default : Yes
Forced : No

Audio #1
ID : 2
Format : AC-3
Format/Info : Audio Coding 3
Commercial name : Dolby Digital
Codec ID : A_AC3
Duration : 1 h 31 min
Bit rate mode : Constant
Bit rate : 384 kb/s
Channel(s) : 6 channels
Channel layout : L R C LFE Ls Rs
Sampling rate : 48.0 kHz
Frame rate : 31.250 FPS (1536 SPF)
Bit depth : 16 bits
Compression mode : Lossy
Stream size : 252 MiB (1%)
Title : Dub [iTunes]
Language : Russian
Service kind : Complete Main
Default : Yes
Forced : Yes

Audio #2
ID : 3
Format : AC-3
Format/Info : Audio Coding 3
Commercial name : Dolby Digital
Codec ID : A_AC3
Duration : 1 h 31 min
Bit rate mode : Constant
Bit rate : 192 kb/s
Channel(s) : 2 channels
Channel layout : L R
Sampling rate : 48.0 kHz
Frame rate : 31.250 FPS (1536 SPF)
Bit depth : 16 bits
Compression mode : Lossy
Stream size : 126 MiB (1%)
Title : MVO [HDRezka Studio]
Language : Russian
Service kind : Complete Main
Default : No
Forced : No

Audio #3
ID : 4
Format : DTS XLL
Format/Info : Digital Theater Systems
Commercial name : DTS-HD Master Audio
Codec ID : A_DTS
Duration : 1 h 31 min
Bit rate mode : Variable
Bit rate : 3 344 kb/s
Channel(s) : 6 channels
Channel layout : C L R Ls Rs LFE
Sampling rate : 48.0 kHz
Frame rate : 93.750 FPS (512 SPF)
Bit depth : 24 bits
Compression mode : Lossless
Stream size : 2.14 GiB (11%)
Title : Original
Language : English
Default : No
Forced : No

Text #1
ID : 5
Format : UTF-8
Codec ID : S_TEXT/UTF8
Codec ID/Info : UTF-8 Plain Text
Duration : 1 h 26 min
Bit rate : 95 b/s
Count of elements : 1367
Stream size : 60.3 KiB (0%)
Title : Full
Language : Russian
Default : No
Forced : No

Text #2
ID : 6
Format : UTF-8
Codec ID : S_TEXT/UTF8
Codec ID/Info : UTF-8 Plain Text
Duration : 1 h 27 min
Bit rate : 63 b/s
Count of elements : 1417
Stream size : 40.7 KiB (0%)
Title : Full
Language : English
Default : No
Forced : No

Menu
00:00:00.000 : :Глава 01
00:05:26.993 : :Глава 02
00:09:19.100 : :Глава 03
00:14:21.110 : :Глава 04
00:23:02.130 : :Глава 05
00:29:52.791 : :Глава 06
00:34:16.471 : :Глава 07
00:40:27.883 : :Глава 08
00:45:19.925 : :Глава 09
00:51:29.211 : :Глава 10
00:54:27.931 : :Глава 11
00:57:48.256 : :Глава 12
01:02:55.897 : :Глава 13
01:09:05.349 : :Глава 14
01:16:59.239 : :Глава 15
01:23:55.655 : :Глава 16

pb.wtf



Скачать Во всё тяжкое через торрент https://img16.lostpic.net/2019/12/11/5d7e1f42a39995599fc08b0a72e2606e.jpg Скачать фильм Во всё тяжкое через торрент бесплантно в хорошем качестве Описание: Ричард — профессор университета, который неожиданно узнает о том, что умирает от неизлечимой болезни. Он всегда жил по совести, ... 10 10 7
Info! Золотая раздача, скачанное не засчитывается.
Торрент: Зарегистрирован [2019-12-11 20:33] · скачан: 190 раз
Статус: √ проверено
Размер: 18.64 GB
Как cкачать? Как скачать Во всё тяжкое через торрент | qTorrent

% Раздел Тема Автор DL S | L
Фильмы [HD 720p, 1080p] (Хороший звук DUB, MVO) [ 8.77 GB ] Во всё тяжкое / Ричард прощается / The Professor [2018 BDRip 1080p] +MVO [HDRezka Studio] bober100 Скачать
9 | 0
Фильмы 2018 [DVDrip, WEB-DLRip, HDrip] (DUB, MVO) [ 1.42 GB ] Во всё тяжкое / Ричард прощается / The Professor [2018 BDRip] - Twi7ter Скачать
74 | 2
Фильмы 2018 [DVDrip, WEB-DLRip, HDrip] (DUB, MVO) [ 743 MB ] Во всё тяжкое / Ричард прощается / The Professor [2018 BDRip] bober100 Скачать
2 | 0
Фильмы 2018 [DVDrip, WEB-DLRip, HDrip] (DUB, MVO) [ 1.56 GB ] Во всё тяжкое / Ричард прощается / The Professor [2018 BDRip-AVC] bober100 Скачать
4 | 0
Фильмы [HD 720p, 1080p] (Хороший звук DUB, MVO) [ 4.62 GB ] Во всё тяжкое / Ричард прощается / The Professor [2018 BDRip 720p] +MVO [HDRezka Studio] bober100 Скачать
6 | 0
Фильмы 2018 [DVDrip, WEB-DLRip, HDrip] (DUB, MVO) [ 1.42 GB ] Во всё тяжкое / Ричард прощается / The Professor [2018 BDRip] bober100 Скачать
4 | 0

28-11-2019 20:33  

Отключить всю рекламу на сайте

    Дорогой пользователь! Огромная просьба, поблагодарите релизера, оцените раздачу и оставьте свои комментарий, если Вы скачали Во всё тяжкое через торрент бесплатно! Внесите свою лепту в развитие PiratBit!
    Комментировать посты могут только пользователи прошедшие не сложную регистрацию
    Показать сообщения:    

    Во всё тяжкое через торрент
    Скачать бесплатно Во всё тяжкое
    Во всё тяжкое скачать торрент
    Во всё тяжкое смотреть онлайн
    Cкачать фильм Во всё тяжкое бесплатно
    Во всё тяжкое скачать торрент в хорошем качестве
    Во всё тяжкое смотреть онлайн бесплатно в хорошем качестве


    Вы не можете начинать темы
    Вы не можете отвечать на сообщения
    Вы не можете редактировать свои сообщения
    Вы не можете удалять свои сообщения
    Вы не можете голосовать в опросах
    Вы не можете прикреплять файлы к сообщениям
    Вы можете скачивать файлы