2 сезон

iTunes

MVO

1

2 сезон

iTunes

iTunes

1 сезон

RePack

30

Новинка

ВАЖНО

ИГРА 18+

pack

RePack

MK11
pack

Легкие деньги

RePack

jed

RePack

fifa19

RePack

RDR2

RePack

NEED FOR SPEED™ PAYBACK

4 сезон

9 сезон

Бесстыжие 9 сезон

Все сериалы

все сериалы на PB.wtf

RePack

FAR CRY 5

Anonymous, добрый вечер, мы не успеваем собрать деньги на оплату серверов за декабрь и январь, помогите нам пожалуйста в это трудное время. В качестве благодарности мы отключим Вам всю рекламу на сайте (укажите свой ник в строку Ваше имя)!

×
  
Magnet ссылка

Во всё тяжкое / Ричард прощается / The Professor (Уэйн Робертс) [2018, драма, комедия, BDRip-AVC] DUB [iTunes] pb.wtf

Во всё тяжкое через торрент pb.wtf

Раздают: 5 [ 0 KB/s ]
Размер: 1.56 GB | Добавлен: 1 год 1 мес. назад | Торрент скачан:414 раз
Скачать  

12-12-2019 04:17 Во всё тяжкое Скачать торрент  

Во всё тяжкое / Ричард прощается / The Professor«Save your best lesson for last»
Год выпуска: 2018
Страна: США
Студия: Global Road Entertainment, Automatik, Leeding Media
Жанр: драма, комедия
Продолжительность: 01:31:38
Перевод: Дублированный | iTunes
Субтитры: Русские (полные)

Режиссер: Уэйн Робертс

rating

В ролях: Джонни Депп, Зои Дойч, Розмари ДеУитт, Дэнни Хьюстон, Палома Квиатковски, Шиван Фэллон, Кейтлин Бернард, Фэрра Авива, Робин Брэдли, Кит МакКекни, Рон Ливингстон, Джастин Уоррингтон, Одесса Янг.

Описание: Ричард — профессор университета, который неожиданно узнает о том, что умирает от неизлечимой болезни. Он всегда жил по совести, ходил на работу, платил налоги, однако это никогда не приносило ему морального удовлетворения. И теперь Ричард решает провести последние дни в свое удовольствие. Понимая, что ему больше нечего терять, он начинает делать все то, что никогда бы не сделал раньше: посещает шумные вечеринки, заводит случайные связи, употребляет наркотики, появляется на работе пьяным и пытается наверстать упущенное...

Качество: BDRip-AVC
Формат: MKV

Видео: 1024x554 (1.85:1), 23,976 fps, x264 ~2 045 kbps avg, 0.150 bit/pixel
Аудио: 48 kHz, AC3 Dolby Digital, 3/2 (L,C,R,l,r) + LFE ch, ~384.00 kbps avg | RUS (iTunes)
скриншот  скриншот  скриншот  скриншот  скриншот  

Общее
Уникальный идентификатор : 223911140024830560568061622372471076863 (0xA873B789BEB2186E47898071C73AF7FF)
Полное имя : F:OlLanDGroupThe.Professor.2018.BDRip(AVC).OlLanDGroup.mkv
Формат : Matroska
Версия формата : Version 4 / Version 2
Размер файла : 1,56 Гбайт
Продолжительность : 1 ч. 31 м.
Общий поток : 2431 Кбит/сек
Название фильма : The.Professor.2018 #TorpedoUK#
Дата кодирования : UTC 2019-12-12 01:56:57
Программа кодирования : mkvmerge v29.0.0 ('Like It Or Not') 64-bit
Библиотека кодирования : libebml v1.3.6 + libmatroska v1.4.9

Видео
Идентификатор : 1
Формат : AVC
Формат/Информация : Advanced Video Codec
Профиль формата : High@L4.1
Параметр CABAC формата : Да
Параметр ReFrames формата : 10 кадров
Идентификатор кодека : V_MPEG4/ISO/AVC
Продолжительность : 1 ч. 31 м.
Битрейт : 2045 Кбит/сек
Ширина : 1024 пикселя
Высота : 554 пикселя
Соотношение сторон : 1,85:1
Режим частоты кадров : Постоянный
Частота кадров : 23,976 (24000/1001) кадра/сек
Цветовое пространство : YUV
Субдискретизация насыщенности : 4:2:0
Битовая глубина : 8 бит
Тип развёртки : Прогрессивная
Бит/(Пиксели*Кадры) : 0.150
Размер потока : 1,31 Гбайт (84%)
Библиотека кодирования : x264 core 146 r2538 121396c
Настройки программы : cabac=1 / ref=10 / deblock=1:-3:-3 / analyse=0x3:0x113 / me=umh / subme=11 / psy=1 / psy_rd=0.98:0.04 / mixed_ref=1 / me_range=48 / chroma_me=1 / trellis=2 / 8x8dct=1 / cqm=0 / deadzone=21,11 / fast_pskip=1 / chroma_qp_offset=-3 / threads=6 / lookahead_threads=1 / sliced_threads=0 / nr=0 / decimate=1 / interlaced=0 / bluray_compat=0 / constrained_intra=0 / bframes=11 / b_pyramid=2 / b_adapt=2 / b_bias=0 / direct=3 / weightb=1 / open_gop=0 / weightp=2 / keyint=240 / keyint_min=23 / scenecut=40 / intra_refresh=0 / rc_lookahead=40 / rc=2pass / mbtree=0 / bitrate=2045 / ratetol=1.0 / qcomp=0.60 / qpmin=0 / qpmax=69 / qpstep=4 / cplxblur=20.0 / qblur=0.5 / vbv_maxrate=50000 / vbv_bufsize=62500 / nal_hrd=none / filler=0 / ip_ratio=1.40 / pb_ratio=1.30 / aq=1:1.00
Язык : English
Default : Да
Forced : Нет

Аудио
Идентификатор : 2
Формат : AC-3
Формат/Информация : Audio Coding 3
Расширение режима : CM (complete main)
Параметр Endianness формата : Big
Идентификатор кодека : A_AC3
Продолжительность : 1 ч. 31 м.
Вид битрейта : Постоянный
Битрейт : 384 Кбит/сек
Каналы : 6 каналов
Расположение каналов : Front: L C R, Side: L R, LFE
Частота : 48,0 КГц
Частота кадров : 31,250 кадров/сек (1536 spf)
Битовая глубина : 16 бит
Метод сжатия : С потерями
Размер потока : 252 Мбайт (16%)
Заголовок : DUB [iTunes]
Язык : Russian
Default : Да
Forced : Нет

Текст
Идентификатор : 3
Формат : UTF-8
Идентификатор кодека : S_TEXT/UTF8
Идентификатор кодека/Информация : UTF-8 Plain Text
Продолжительность : 1 ч. 25 м.
Битрейт : 95 бит/сек
Count of elements : 1366
Размер потока : 60,2 Кбайт (0%)
Заголовок : Full
Язык : Russian
Default : Нет
Forced : Нет

Меню
00:00:00.000 : :Глава 01
00:05:26.993 : :Глава 02
00:09:19.100 : :Глава 03
00:14:21.110 : :Глава 04
00:23:02.130 : :Глава 05
00:29:52.791 : :Глава 06
00:34:16.471 : :Глава 07
00:40:27.883 : :Глава 08
00:45:19.925 : :Глава 09
00:51:29.211 : :Глава 10
00:54:27.931 : :Глава 11
00:57:48.256 : :Глава 12
01:02:55.897 : :Глава 13
01:09:05.349 : :Глава 14
01:16:59.239 : :Глава 15
01:23:55.655 : :Глава 16

pb.wtf



Скачать Во всё тяжкое через торрент https://i110.fastpic.ru/big/2019/0527/c7/024bd20b229236888c11e7458fc156c7.jpg Скачать фильм Во всё тяжкое через торрент бесплантно в хорошем качестве Описание: Ричард — профессор университета, который неожиданно узнает о том, что умирает от неизлечимой болезни. Он всегда жил по совести, ... 9.9 10 14
Info! Золотая раздача, скачанное не засчитывается.
Торрент: Зарегистрирован [2019-12-12 04:17] · скачан: 414 раз
Статус: √ проверено
Размер: 1.56 GB
Как cкачать? Как скачать Во всё тяжкое через торрент | UTorrent

% Раздел Тема Автор DL S | L
Фильмы [HD 720p, 1080p] (Хороший звук DUB, MVO) [ 8.77 GB ] Во всё тяжкое / Ричард прощается / The Professor [2018 BDRip 1080p] +MVO [HDRezka Studio] bober100 Скачать
12 | 0
Фильмы 2018 [DVDrip, WEB-DLRip, HDrip] (DUB, MVO) [ 1.42 GB ] Во всё тяжкое / Ричард прощается / The Professor [2018 BDRip] - Twi7ter Скачать
53 | 1
Фильмы 2018 [DVDrip, WEB-DLRip, HDrip] (DUB, MVO) [ 743 MB ] Во всё тяжкое / Ричард прощается / The Professor [2018 BDRip] bober100 Скачать
1 | 0
Фильмы (Blu-ray, BD-Remux, HDDVD) [ 18.64 GB ] Во всё тяжкое / Ричард прощается / The Professor [2018 BD Remux 1080p] +MVO [HDRezka Studio] bober100 Скачать
1 | 0
Фильмы [HD 720p, 1080p] (Хороший звук DUB, MVO) [ 4.62 GB ] Во всё тяжкое / Ричард прощается / The Professor [2018 BDRip 720p] +MVO [HDRezka Studio] bober100 Скачать
2 | 0
Фильмы 2018 [DVDrip, WEB-DLRip, HDrip] (DUB, MVO) [ 1.42 GB ] Во всё тяжкое / Ричард прощается / The Professor [2018 BDRip] bober100 Скачать
1 | 0

28-11-2019 20:33  

Отключить всю рекламу на сайте

    Дорогой пользователь! Огромная просьба, поблагодарите релизера, оцените раздачу и оставьте свои комментарий, если Вы скачали Во всё тяжкое через торрент бесплатно! Внесите свою лепту в развитие PiratBit!
    Комментировать посты могут только пользователи прошедшие не сложную регистрацию
    Показать сообщения:    

    Во всё тяжкое через торрент
    Скачать бесплатно Во всё тяжкое
    Во всё тяжкое скачать торрент
    Во всё тяжкое смотреть онлайн
    Cкачать фильм Во всё тяжкое бесплатно
    Во всё тяжкое скачать торрент в хорошем качестве
    Во всё тяжкое смотреть онлайн бесплатно в хорошем качестве


    Вы не можете начинать темы
    Вы не можете отвечать на сообщения
    Вы не можете редактировать свои сообщения
    Вы не можете удалять свои сообщения
    Вы не можете голосовать в опросах
    Вы не можете прикреплять файлы к сообщениям
    Вы можете скачивать файлы