Ссылка на приватное зеркало нашего сайта всего за 1$. Внимание количество ограничено!!!

2 сезон

iTunes

1 сезон

1

2 сезон

2 сезон

iTunes

1 сезон

RePack

30

Новинка

ВАЖНО

ИГРА 18+

pack

RePack

MK11
pack

Забери бонус

RePack

jed

!!Акция!!

Alien_Rage

RePack

fifa19

RePack

Assassins Creed: Odyssey

RePack

NEED FOR SPEED™ PAYBACK

4 сезон

9 сезон

Бесстыжие 9 сезон

Все сериалы

все сериалы на PB.wtf

RePack

FAR CRY 5
  

Свадебный год / The Wedding Year (Роберт Лукетич) [2019, Комедия, WEB-DL 1080p] DUB [iTunes] pb.wtf

Свадебный год через торрент pb.wtf

Размер: 5.63 GB | Добавлен: 11 мес. назад | Торрент скачан:82 раза
Скачать  

12-12-2019 07:39 Свадебный год Скачать торрент  

Свадебный год | The Wedding Year
Год выпуска: 2019
Страна: США
Жанр: Комедия
Продолжительность: 01:30:52
Перевод: Дублированный | iTunes
Субтитры: Английские

Режиссер: Роберт Лукетич

rating

В ролях: Анна Кэмп, Сара Хайланд, Дженна Деван, Кит Дэвид, Норин ДеВулф, Тайлер Джеймс Уильямс, Ванда Сайкс, Дарлин Фогел, Мэтт Шайвли, Грэйс Хельбиг

Описание: Фотограф из Лос-Анджелеса Мара уверена, что семейная жизнь - это не для нее, даже после знакомства с привлекательным парнем Джеком, который готов к серьезным отношениям. Но Мара сможет увидеть новую сторону брака, получив приглашение на 15 свадеб за один год.

Качество: WEB-DL 1080p
Формат: MKV

Видео: MPEG-4 AVC, 7670 Кбит/с, 1920x816
Аудио#1: Русский (AC3, 6 ch, 384 Кбит/с)
Аудио#2: английский (E-АС3, 6 ch, 640 Кбит/с)
скриншот  скриншот  скриншот  скриншот  скриншот  

Общее
Уникальный идентификатор : 251693117532264762221140542545929751738 (0xBD5A54C88CE7F49083CF3D34FF8CCCBA)
Полное имя : D:\Svadebnyj.god.2019.D.WEB-DL.1080p.mkv
Формат : Matroska
Версия формата : Version 4 / Version 2
Размер файла : 5,63 Гбайт
Продолжительность : 1 ч. 30 м.
Общий поток : 8870 Кбит/сек
Название фильма : T_W_YEAR_2019_WEB-DL_1080p_AMAZON-BLUEBIRD
Дата кодирования : UTC 2019-12-11 20:08:06
Программа кодирования : mkvmerge v6.9.1 ('Blue Panther') 32bit built on Apr 18 2014 18:15:44
Библиотека кодирования : libebml v1.3.0 + libmatroska v1.4.1
Обложка : Yes
Attachments : cover3.png

Видео
Идентификатор : 1
Формат : AVC
Формат/Информация : Advanced Video Codec
Профиль формата : High@L4
Параметр CABAC формата : Да
Параметр RefFrames формата : 4 кадра
Идентификатор кодека : V_MPEG4/ISO/AVC
Продолжительность : 1 ч. 30 м.
Вид битрейта : Постоянный
Битрейт : 7670 Кбит/сек
Номинальный битрейт : 10000 Кбит/сек
Ширина : 1920 пикселей
Высота : 816 пикселей
Соотношение сторон : 2,35:1
Режим частоты кадров : Постоянный
Частота кадров : 23,976 (24000/1001) кадра/сек
Цветовое пространство : YUV
Субдискретизация насыщенности : 4:2:0
Битовая глубина : 8 бит
Тип развёртки : Прогрессивная
Бит/(Пиксели*Кадры) : 0.204
Размер потока : 4,87 Гбайт (86%)
Заголовок : T_W_YEAR_2019_WEB-DL_1080p_AMAZON-BLUEBIRD
Default : Да
Forced : Нет
Цветовой диапазон : Limited
Основные цвета : BT.709
Характеристики трансфера : BT.709
Коэффициенты матрицы : BT.709

Аудио #1
Идентификатор : 2
Формат : AC-3
Формат/Информация : Audio Coding 3
Расширение режима : CM (complete main)
Параметр Endianness формата : Big
Идентификатор кодека : A_AC3
Продолжительность : 1 ч. 30 м.
Вид битрейта : Постоянный
Битрейт : 384 Кбит/сек
Каналы : 6 каналов
Расположение каналов : Front: L C R, Side: L R, LFE
Частота : 48,0 КГц
Частота кадров : 31,250 кадров/сек (1536 spf)
Метод сжатия : С потерями
Размер потока : 250 Мбайт (4%)
Заголовок : [DUB] DD 5.1 @ 384 kbps (iTunes)
Язык : Russian
Default : Да
Forced : Нет

Аудио #2
Идентификатор : 3
Формат : E-AC-3
Формат/Информация : Audio Coding 3
Параметр Endianness формата : Big
Идентификатор кодека : A_EAC3
Продолжительность : 1 ч. 30 м.
Вид битрейта : Постоянный
Битрейт : 640 Кбит/сек
Каналы : 6 каналов
Расположение каналов : Front: L C R, Side: L R, LFE
Частота : 48,0 КГц
Частота кадров : 187,500 кадров/сек (256 spf)
Метод сжатия : С потерями
Размер потока : 416 Мбайт (7%)
Заголовок : [ORIGINAL] DD+ 5.1 @ 640 kbps (Amazon)
Язык : English
Default : Нет
Forced : Нет

Текст
Идентификатор : 4
Формат : UTF-8
Идентификатор кодека : S_TEXT/UTF8
Идентификатор кодека/Информация : UTF-8 Plain Text
Заголовок : Full-length
Язык : English
Default : Нет
Forced : Нет

pb.wtf



Скачать Свадебный год через торрент https://b.radikal.ru/b24/1912/8e/fb9fc6df2ad2.png Скачать фильм Свадебный год через торрент бесплантно в хорошем качестве Описание: Фотограф из Лос-Анджелеса Мара уверена, что семейная жизнь - это не для нее, даже после знакомства с привлекательным парнем ... 8.2 10 5
Торрент: Зарегистрирован [2019-12-12 07:39] · скачан: 82 раз
Статус: √ проверено
Размер: 5.63 GB
Как cкачать? Как скачать Свадебный год через торрент | qTorrent

% Раздел Тема Автор DL S | L
Фильмы [HD 720p, 1080p] (Хороший звук DUB, MVO) [ 9.9 GB ] Свадебный год / The Wedding Year [2019 BDRip 1080p] bober100 Скачать
1 | 0
Фильмы 2019-2020 [DVDrip, WEB-DLRip, HDrip] (DUB, MVO) [ 744 MB ] Свадебный год / The Wedding Year [2019 WEB-DLRip] bober100 Скачать
1 | 0
Фильмы 2019-2020 [DVDrip, WEB-DLRip, HDrip] (DUB, MVO) [ 1.46 GB ] Свадебный год / The Wedding Year [2019 BDRip] bober100 Скачать
3 | 0

28-11-2019 20:33  

Отключить всю рекламу на сайте

    Дорогой пользователь! Огромная просьба, поблагодарите релизера, оцените раздачу и оставьте свои комментарий, если Вы скачали Свадебный год через торрент бесплатно! Внесите свою лепту в развитие PiratBit!
    Комментировать посты могут только пользователи прошедшие не сложную регистрацию
    Показать сообщения:    

    Свадебный год через торрент
    Скачать бесплатно Свадебный год
    Свадебный год скачать торрент
    Свадебный год смотреть онлайн
    Cкачать фильм Свадебный год бесплатно
    Свадебный год скачать торрент в хорошем качестве
    Свадебный год смотреть онлайн бесплатно в хорошем качестве


    Вы не можете начинать темы
    Вы не можете отвечать на сообщения
    Вы не можете редактировать свои сообщения
    Вы не можете удалять свои сообщения
    Вы не можете голосовать в опросах
    Вы не можете прикреплять файлы к сообщениям
    Вы можете скачивать файлы