Ссылка на приватное зеркало нашего сайта всего за 1$. Внимание количество ограничено!!!

2 сезон

iTunes

1 сезон

1

2 сезон

2 сезон

iTunes

1 сезон

RePack

30

Новинка

ВАЖНО

ИГРА 18+

pack

RePack

MK11
pack

Забери бонус

RePack

jed

!!Акция!!

Alien_Rage

RePack

fifa19

RePack

Assassins Creed: Odyssey

RePack

NEED FOR SPEED™ PAYBACK

4 сезон

9 сезон

Бесстыжие 9 сезон

Все сериалы

все сериалы на PB.wtf

RePack

FAR CRY 5
  

Deep Sun - Das Erbe Der Welt - 2019/ WavPack/ image +.cue/ lossless/ Symphonic Power Metal pb.wtf

Deep Sun - Das Erbe Der Welt - 2019 через торрент pb.wtf

Размер: 616 MB | Добавлен: 11 мес. назад | Торрент скачан:3 раза
Скачать  

12-12-2019 08:58 Deep Sun - Das Erbe Der Welt - 2019 Скачать торрент  


Deep Sun - Das Erbe Der Welt


Год издания: 2019
Страна: Switzerland
Жанр: Symphonic Power Metal
Продолжительность: 01:03:44
Лейбл издания: Massacre Records
Страна-выпуска диска: Japan
Номер по каталогу: MASS CD1072
Формат: WavPack
Битрейт аудио: Lossless
Тип рипа: image +.cue
Наличие сканов в содержимом раздачи: да


01. Relentless Resistance (4:49)
02. Heroes (4:01)
03. Insurrection Of Technology (3:54)
04. Worship The Warship (5:42)
05. Abandon Cyberspace (3:43)
06. Das Erbe Der Welt (4:32)
07. Super New World (4:41)
08. Vertigo (5:06)
09. Go For The Kill (3:55)
10. My Darkness (3:41)
11. Frozen Sea (4:14)
12. The Raven (15:27)

Код:

Exact Audio Copy V1.3 from 2. September 2016

EAC extraction logfile from 15. November 2019, 12:35

Deep Sun / Das Erbe Der Welt

Used drive  : HL-DT-STDVDRAM GH24NSD1   Adapter: 1  ID: 0

Read mode               : Secure
Utilize accurate stream : Yes
Defeat audio cache      : Yes
Make use of C2 pointers : No

Read offset correction                      : 6
Overread into Lead-In and Lead-Out          : No
Fill up missing offset samples with silence : Yes
Delete leading and trailing silent blocks   : No
Null samples used in CRC calculations       : Yes
Used interface                              : Native Win32 interface for Win NT & 2000

Used output format              : User Defined Encoder
Selected bitrate                : 896 kBit/s
Quality                         : High
Add ID3 tag                     : No
Command line compressor         : C:\Program Files (x86)\Exact Audio Copy\wavpack.exe
Additional command line options : -hm %source% %dest%

TOC of the extracted CD

     Track |   Start  |  Length  | Start sector | End sector
    ---------------------------------------------------------
        1  |  0:00.00 |  4:48.67 |         0    |    21666
        2  |  4:48.67 |  4:01.06 |     21667    |    39747
        3  |  8:49.73 |  3:54.26 |     39748    |    57323
        4  | 12:44.24 |  5:41.41 |     57324    |    82939
        5  | 18:25.65 |  3:43.20 |     82940    |    99684
        6  | 22:09.10 |  4:31.62 |     99685    |   120071
        7  | 26:40.72 |  4:40.65 |    120072    |   141136
        8  | 31:21.62 |  5:05.53 |    141137    |   164064
        9  | 36:27.40 |  3:55.28 |    164065    |   181717
       10  | 40:22.68 |  3:40.39 |    181718    |   198256
       11  | 44:03.32 |  4:13.60 |    198257    |   217291
       12  | 48:17.17 | 15:26.58 |    217292    |   286799

Range status and errors

Selected range

     Filename E:\ Deep Sun - 2019 - Das Erbe Der Welt\Deep Sun - Das Erbe Der Welt.wav

     Peak level 98.8 %
     Extraction speed 7.4 X
     Range quality 99.9 %
     Test CRC 650FFC56
     Copy CRC 650FFC56
     Copy OK

No errors occurred

End of status report

Код:

REM GENRE "Gothic Symphonic Metal"
REM DATE 2019
REM DISCID A40EF00C
REM COMMENT "ExactAudioCopy v1.3"
REM COMPOSER ""
PERFORMER "Deep Sun"
TITLE "Das Erbe Der Welt"
FILE "Deep Sun - 2019 - Das Erbe Der Welt.wv" WAVE
  TRACK 01 AUDIO
    TITLE "Relentless Resistance"
    PERFORMER "Deep Sun"
    REM COMPOSER ""
    INDEX 01 00:00:00
  TRACK 02 AUDIO
    TITLE "Heroes"
    PERFORMER "Deep Sun"
    REM COMPOSER ""
    INDEX 01 04:48:67
  TRACK 03 AUDIO
    TITLE "Insurrection Of Technology"
    PERFORMER "Deep Sun"
    REM COMPOSER ""
    INDEX 01 08:49:73
  TRACK 04 AUDIO
    TITLE "Worship The Warship"
    PERFORMER "Deep Sun"
    REM COMPOSER ""
    INDEX 01 12:44:24
  TRACK 05 AUDIO
    TITLE "Abandon Cyberspace"
    PERFORMER "Deep Sun"
    REM COMPOSER ""
    INDEX 01 18:25:65
  TRACK 06 AUDIO
    TITLE "Das Erbe Der Welt"
    PERFORMER "Deep Sun"
    REM COMPOSER ""
    INDEX 01 22:09:10
  TRACK 07 AUDIO
    TITLE "Super New World"
    PERFORMER "Deep Sun"
    REM COMPOSER ""
    INDEX 01 26:40:72
  TRACK 08 AUDIO
    TITLE "Vertigo"
    PERFORMER "Deep Sun"
    REM COMPOSER ""
    INDEX 01 31:21:62
  TRACK 09 AUDIO
    TITLE "Go For The Kill"
    PERFORMER "Deep Sun"
    REM COMPOSER ""
    INDEX 01 36:27:40
  TRACK 10 AUDIO
    TITLE "My Darkness"
    PERFORMER "Deep Sun"
    REM COMPOSER ""
    INDEX 01 40:22:68
  TRACK 11 AUDIO
    TITLE "Frozen Sea"
    PERFORMER "Deep Sun"
    REM COMPOSER ""
    INDEX 01 44:03:32
  TRACK 12 AUDIO
    TITLE "The Raven"
    PERFORMER "Deep Sun"
    REM COMPOSER ""
    INDEX 01 48:17:17








pb.wtf



Скачать Deep Sun - Das Erbe Der Welt - 2019 через торрент http://b.radikal.ru/b42/1912/95/f199888cfe22.png Скачать фильм Deep Sun - Das Erbe Der Welt - 2019через торрент бесплантно в хорошем качестве Трэклист Relentless Resistance (4:49) Heroes (4:01) Insurrection Of Technology (3:54) Worship The Warship (5:42) ... 10 10 1
Торрент: Зарегистрирован [2019-12-12 08:58] · скачан: 3 раз
Статус: √ проверено
Размер: 616 MB
Как cкачать? Как скачать Deep Sun - Das Erbe Der Welt - 2019 через торрент | qTorrent

28-11-2019 20:33  

Отключить всю рекламу на сайте

    Дорогой пользователь! Огромная просьба, поблагодарите релизера, оцените раздачу и оставьте свои комментарий, если Вы скачали Deep Sun - Das Erbe Der Welt - 2019 через торрент бесплатно! Внесите свою лепту в развитие PiratBit!
    Комментировать посты могут только пользователи прошедшие не сложную регистрацию
    Показать сообщения:    

    Deep Sun - Das Erbe Der Welt - 2019 через торрент
    Скачать бесплатно Deep Sun - Das Erbe Der Welt - 2019
    Deep Sun - Das Erbe Der Welt - 2019 скачать торрент
    Deep Sun - Das Erbe Der Welt - 2019 смотреть онлайн
    Cкачать фильм Deep Sun - Das Erbe Der Welt - 2019 бесплатно
    Deep Sun - Das Erbe Der Welt - 2019 скачать торрент в хорошем качестве
    Deep Sun - Das Erbe Der Welt - 2019 смотреть онлайн бесплатно в хорошем качестве


    Вы не можете начинать темы
    Вы не можете отвечать на сообщения
    Вы не можете редактировать свои сообщения
    Вы не можете удалять свои сообщения
    Вы не можете голосовать в опросах
    Вы не можете прикреплять файлы к сообщениям
    Вы можете скачивать файлы